loading...
loading...






Info

20,000 Leagues Under the Sea


7.2
IMDB: 7.2/10 22,094 votes

Durata: 127 min

Released:

Anno: 23 Dec 1954

Direttore:

Premi: Won 2 Oscars. Another 1 win & 2 nominations.

Budget: 5000000$

Incassi: 28200000$

Stato: Released

Paese: USA

Cast:




La trama come da titolo è abbastanza aderente a quella del libro, ed un complimento va alla capacità dei creatori del film per essere riusciti a farlo nonostante le difficoltà dell’epoca.

Trailer


Upload on Youtube

Info File

Video
ID : 0
Format : MPEG-4 Visual
Codec ID : DIV3
Codec ID/Hint : DivX 3 Low
Duration : 1h 40mn
Bit rate : 801 Kbps
Width : 640 pixels
Height : 480 pixels
Display aspect ratio : 4:3
Frame rate : 29.970 fps
Color space : YUV
Chroma subsampling : 4:2:0
Bit depth : 8 bits
Compression mode : Lossy
Bits/(Pixel*Frame) : 0.087
Stream size : 577 MiB (85%)

Audio
ID : 1
Format : MPEG Audio
Format version : Version 1
Format profile : Layer 3
Mode : Joint stereo
Mode extension : MS Stereo
Codec ID : 55
Codec ID/Hint : MP3
Duration : 1h 40mn
Bit rate mode : Constant
Bit rate : 128 Kbps
Channel(s) : 2 channels
Sampling rate : 48.0 KHz
Compression mode : Lossy
Stream size : 92.2 MiB (14%)
Alignment : Split accross interleaves
Interleave, duration : 33 ms (1.00 video frame)
Interleave, preload duration : 500 ms

Immagini

20000 leghe sotto i mari (1916), [DivX – Ita Mp3 – Sub Ita]
20000 leghe sotto i mari (1916), [DivX – Ita Mp3 – Sub Ita]
20000 leghe sotto i mari (1916), [DivX – Ita Mp3 – Sub Ita]
20000 leghe sotto i mari (1916), [DivX – Ita Mp3 – Sub Ita]
20000 leghe sotto i mari (1916), [DivX – Ita Mp3 – Sub Ita]
20000 leghe sotto i mari (1916), [DivX – Ita Mp3 – Sub Ita]
20000 leghe sotto i mari (1916), [DivX – Ita Mp3 – Sub Ita]
20000 leghe sotto i mari (1916), [DivX – Ita Mp3 – Sub Ita]

Trackers

http://tracker.istole.it:80/
http://tracker.publicbt.com:80/
http://open.demonii.com:1337/scrape
http://tracker.tntvillage.scambioetico.org:2710/scrape
http://tracker.coppersurfer.tk:6969/scrape
http://tracker.openbittorrent.com/scrape