7 km da Gerusalemme (2007), [XviD – Ita Ac3]  (1.37 Gb)

Likes(0)Dislikes(0)
seeders: 0
leechers: 1


loading...
loading...






Info

7 km da Gerusalemme


5.5
IMDB: 5.5/10 76 votes

Durata: N/A

Released:

Anno: 04 May 2007

Direttore:

Premi: 1 win.

Stato: Released

Paese: Italy

Cast:




Alessandro Forte, 43 anni, pubblicitario, è in profonda crisi. Ha perso il lavoro, non sta bene, sua moglie lo ha abbandonato portandosi via la figlia, non ha risorse. Per una ragione indecifrabile si trova a camminare sulla strada che da Gerusalemme va verso il mare. A 7 km, non lontano da Emmaus gli si fa incontro un uomo con una tunica, coi sandali, che gli dice di essere Gesù. Alessandro lo prende per un artista di strada, ma il “Gesù” insiste, e mostra di sapere molte cose di lui. Alessandro, colpito, e anche impaurito chiede un miracolo. Da questa premessa comincia il rapporto fra i due. A 7 km da Gerusalemme, ad ogni incontro, Alessandro ha le sue domande da porre e l’altro le risposte da dare. E sono le domande e risposte che miliardi di persone avrebbero voluto e vorrebbero fare e sentire

Trailer


Upload on Youtube

Info File

IP-.XviD[ita].avi
Format: AVI
Format/Info: Audio Video Interleave
File size: 1.37 GiB
Duration: 1h 46mn
Overall bit rate: 1 836 Kbps
Writing application: VirtualDubMod 1.5.10.2 (build 2540/release)
Writing library: VirtualDubMod build 2540/release

Video
ID: 0
Format: MPEG-4 Visual
Format profile: [email protected]
Format settings, BVOP: Yes
Format settings, QPel: No
Format settings, GMC: No warppoints
Format settings, Matrix: Default (H.263)
Codec ID: XVID
Codec ID/Hint: XviD
Duration: 1h 46mn
Bit rate: 1 378 Kbps
Width: 624 pixels
Height: 336 pixels
Display aspect ratio: 1.857
Frame rate: 25.000 fps
Resolution: 24 bits
Colorimetry: 4:2:0
Scan type: Progressive
Bits/(Pixel*Frame): 0.263
Stream size: 1.03 GiB (75%)
Writing library: XviD 1.1.0 (UTC 2005-11-22)

Audio
ID: 1
Format: AC-3
Format/Info: Audio Coding 3
Codec ID: 2000
Duration: 1h 46mn
Bit rate mode: Constant
Bit rate: 448 Kbps
Channel(s): 6 channels
Channel positions: Front: L C R, Surround: L R, LFE
Sampling rate: 48.0 KHz
Stream size: 342 MiB (24%)
Alignment: Split accross interleaves
Interleave, duration: 40 ms (1.00 video frame)
Interleave, preload duration: 500 ms

Immagini

7 km da Gerusalemme (2007), [XviD – Ita Ac3]

Trackers

http://tracker.istole.it:80/
http://tracker.publicbt.com:80/
http://tracker.tntvillage.scambioetico.org:2710/scrape
http://open.demonii.com:1337/scrape
http://tracker.coppersurfer.tk:6969/scrape
http://tracker.openbittorrent.com/scrape