loading...
loading...






Info

Taking Sides


7.2
IMDB: 7.2/10 2,773 votes

Durata: 108 min

Released:

Anno: 07 Mar 2002

Direttore:

Premi: 9 wins & 1 nomination.

Stato: Released

Paese: France, UK, Germany, Austria

Tagline: La Germania e la denazificazione. Politica e arte a confronto.

Cast:




A tale based on the life of Wilhelm Furtwangler, the controversial conductor of the Berlin Philharmonic whose tenure coincided with the controversial Nazi era. One of the most spectacular

Trailer


Upload on Youtube

Info File

Video
ID : 0
Format : MPEG-4 Visual
Format profile : Advanced [email protected]
Format settings, BVOP : Yes
Format settings, QPel : No
Format settings, GMC : No warppoints
Format settings, Matrix : Default (H.263)
Muxing mode : Packed bitstream
Codec ID : XVID
Codec ID/Hint : XviD
Duration : 1h 45mn
Bit rate : 909 Kbps
Width : 576 pixels
Height : 320 pixels
Display aspect ratio : 16:9
Frame rate : 25.000 fps
Resolution : 8 bits
Colorimetry : 4:2:0
Scan type : Progressive
Bits/(Pixel*Frame) : 0.197
Stream size : 684 MiB (87%)
Writing library : XviD 1.1.2 (UTC 2006-11-01)

Audio
ID : 1
Format : MPEG Audio
Format version : Version 1
Format profile : Layer 3
Codec ID : 55
Codec ID/Hint : MP3
Duration : 1h 45mn
Bit rate mode : Constant
Bit rate : 128 Kbps
Channel(s) : 2 channels
Sampling rate : 44.1 KHz
Video delay : 26ms
Stream size : 96.3 MiB (12%)
Alignment : Split accross interleaves
Interleave, duration : 40 ms (1.00 video frame)
Title : Audio Stream

Immagini

A torto o a ragione (2001) István Szabó, [XviD – Ita Mp3]

Trackers

http://tracker.istole.it:80/
http://tracker.publicbt.com:80/
http://open.demonii.com:1337/scrape
http://tracker.tntvillage.scambioetico.org:2710/scrape
http://tracker.coppersurfer.tk:6969/scrape
http://tracker.openbittorrent.com/scrape

Torrent correlati

Torrent Name Dimm. Creato Seed Leech
comment icon
699.94 Mb 2 mesi fa 1 1
comment icon
1.37 Gb 3 mesi fa 3 0
comment icon
7.87 Gb 3 mesi fa 2 1
comment icon
806.61 Mb 2 mesi fa 1 1
comment icon
866.38 Mb 3 mesi fa 4 1