Info

user posted image

 

.:Scheda:.

ALF
Titolo originale ALF
Paese Stati Uniti
Anno 1986-1990
Formato serie TV
Genere Sitcom
Stagioni 4
Episodi 102
Durata 25 min
Lingua originale inglese
Caratteristiche tecniche
Colore colore
Audio mono
Crediti
Ideatore Paul Fusco, Tom Patchett
Produttore Alien Productions Inc./Warner Bros. Television
Prima visione
Prima TV Stati Uniti
Dal 22 settembre 1986
Al 24 marzo 1990
Rete televisiva NBC
Prima TV in italiano (gratuita)
Dal 1988
Rete televisiva Rai 2

 

ALF è una situation comedy con elementi fantascientifici prodotta negli Stati Uniti dalla NBC e andata in onda sulla stessa emittente dal 1986 al 1990 (successivamente in Svizzera sulla RTSI e in Italia sulla RAI e in replica su altre emittenti private). La sigla è stata composta da Alf Clausen.

Creata da Paul Fusco la serie è composta da centodue episodi suddivisi in quattro stagioni, da cui sono nati successivamente anche due adattamenti animati.

La serie, ispirata al film E.T. l’Extra-Terrestre del 1982, ha per protagonista Gordon Shumway (chiamato dalla famiglia presso cui atterra Alf, ovvero Alien Life Form), alieno di 229 anni proveniente dal pianeta Melmac dove l’erba è blu, il cielo è verde e il sole porpora. Ricoperto completamente di pelo castano, Alf va ghiotto di gatti e, nonostante l’età, la maggior parte delle volte si comporta in modo molto infantile e arrogante.:.

.:Trama:.

Seguendo un segnale radio Alf si schianta sul garage della famiglia Tanner che, non sapendo come comportarsi, lo accoglie e lo tiene al sicuro dalla NASA e dai propri vicini, finché i lavori per riparare l’astronave non saranno ultimati. Alf ha abbandonato il suo pianeta natale, Melmac, perché è andato incontro all’apocalisse nucleare (causata dall’accensione contemporanea da parte di tutti gli abitanti del pianeta di un asciugacapelli…) ed è convinto di essere l’unico sopravvissuto della sua specie. Diventa a questo punto un membro della famiglia Tanner, sempre tenuto nascosto, impara fin troppo bene a sopravvivere alla monotonia casalinga dedicandosi alla televisione e al cibo.

I Tanner sono la classica famiglia americana composta dal capofamiglia Willie Tanner che lavora per i servizi sociali, sua moglie Kate, la figlia maggiore adolescente Lynn e il piccolo Brian. Successivamente la famiglia Tanner si arricchirà, nell’ultima stagione, di un nuovo membro: il piccolissimo Eric.
:.

.:Personaggi ed Interpreti:.

Interpreti e personaggi

Max Wright: Willie Tanner
Anne Schedeen: Kate Tanner
Andrea Elson: Lynn Tanner
Benji Gregory: Brian Tanner
Paul Fusco: ALF (voce originale)
Mihaly Meszaros: ALF (animazione)
John LaMotta: Trevor Ochmonek
Liz Sheridan: Raquel Ochmonek
Anne Meara: Dorothy Halligan (ST. 1-2)
Josh Blake: Jake Ochmonek (ST. 2-3)
Jim J. Bullock: Neal Tanner (ST. 4)

Doppiatori e personaggi

Gil Baroni: Willie Tanner
Manuela Andrei: Kate Tanner
Giuppy Izzo: Lynn Tanner
Francesca Rinaldi: Brian Tanner
Gigi Angelillo: ALF
Romano Ghini: Trevor Ochmonek
Germana Dominici: Raquel Ochmonek
Gabriella Genta: Dorothy Halligan:.

Info File

General
Unique ID : 203568054555165057595681589507464459893 (0x9925C7FCA5C19686A0993B2597197675)
Complete name : C:\Users\Rotheanimal\Desktop\Condivisione\alf s01ep21-26\1x21-La Finestra Sul Cortile (Lookin'Through The Window).By.Rotheanimal.mkv
Format : Matroska
Format version : Version 4 / Version 2
File size : 263 MiB
Duration : 24mn 45s
Overall bit rate : 1 486 Kbps
Movie name : 1x21-La Finestra Sul Cortile (Lookin'Through The Window).By.Rotheanimal
Encoded date : UTC 2017-04-23 09:39:58
Writing application : mkvmerge v9.9.0 ('Pick Up') 64bit
Writing library : libebml v1.3.4 + libmatroska v1.4.5
Attachements : cover.jpg
DURATION : 00:24:45.568000000
NUMBER_OF_FRAMES : 46424
NUMBER_OF_BYTES : 35653632
_STATISTICS_WRITING_APP : mkvmerge v9.9.0 ('Pick Up') 64bit
_STATISTICS_WRITING_DATE_UT : 2017-04-23 09:39:58
_STATISTICS_TAGS : BPS DURATION NUMBER_OF_FRAMES NUMBER_OF_BYTES

Video
ID : 1
Format : MPEG-4 Visual
Format profile : Advanced [email protected]
Format settings, BVOP : 1
Format settings, QPel : No
Format settings, GMC : No warppoints
Format settings, Matrix : Custom
Codec ID : V_MS/VFW/FOURCC / XVID
Codec ID/Hint : XviD
Duration : 24mn 45s
Bit rate : 1 072 Kbps
Width : 576 pixels
Height : 432 pixels
Display aspect ratio : 4:3
Frame rate mode : Constant
Frame rate : 25.000 fps
Color space : YUV
Chroma subsampling : 4:2:0
Bit depth : 8 bits
Scan type : Progressive
Compression mode : Lossy
Bits/(Pixel*Frame) : 0.172
Stream size : 190 MiB (72%)
Title : 1x21-La Finestra Sul Cortile (Lookin'Through The Window).By.Rotheanimal
Writing library : XviD 1.2.1 (UTC 2008-12-04)
Language : English
Default : Yes
Forced : No

Audio #1
ID : 2
Format : AC-3
Format/Info : Audio Coding 3
Mode extension : CM (complete main)
Format settings, Endianness : Big
Codec ID : A_AC3
Duration : 24mn 45s
Bit rate mode : Constant
Bit rate : 192 Kbps
Channel(s) : 2 channels
Channel positions : Front: L R
Sampling rate : 48.0 KHz
Compression mode : Lossy
Stream size : 34.0 MiB (13%)
Title : Ac3(Ita).By.Rotheanimal
Language : Italian
Default : Yes
Forced : No

Audio #2
ID : 3
Format : MPEG Audio
Format version : Version 1
Format profile : Layer 3
Mode : Joint stereo
Mode extension : MS Stereo
Codec ID : A_MPEG/L3
Codec ID/Hint : MP3
Duration : 24mn 45s
Bit rate mode : Constant
Bit rate : 192 Kbps
Channel(s) : 2 channels
Sampling rate : 48.0 KHz
Compression mode : Lossy
Stream size : 34.0 MiB (13%)
Title : Mp3(Eng):By.Rotheanimal
Writing library : LAME3.98r
Encoding settings : -m j -V 4 -q 2 -lowpass 18.6 -b 192
Language : English
Default : No
Forced : No

Trackers

http://tracker.leechers-paradise.org:6969/scrape
http://tracker.tntvillage.scambioetico.org:2710/scrape
http://tracker.tiny-vps.com:6969/scrape
http://tracker.mg64.net:2710/scrape
http://tracker.coppersurfer.tk:6969/scrape
http://IPv6.leechers-paradise.org:6969/scrape
http://tracker.internetwarriors.net:1337/scrape
http://tracker.openbittorrent.com/scrape