loading...
loading...






Info

user posted image

.:Alice è una sitcom americana trasmessa negli USA dalla CBS tra il 31 agosto 1976 ed il 2 luglio 1985 interpretata da Linda Lavin nel ruolo di Alice. La serie trae ispirazione dal film Alice non abita più qui di Martin Scorsese (1974), in cui invece il ruolo di Alice era interpretato da Ellen Burstyn che per quella interpretazione ricevette un Academy Award. Inizialmente l’unico attore del film ad essere presente nella serie TV fu Vic Tayback nel ruolo di Mel Sharples, il burbero proprietario del Mel’s Diner.

Nel 1980 fu raggiunto da Diane Ladd, che nel film aveva interpretato Flo e che invece nella serie TV interpretò Belle.:.

Prima Stagione
Anno: (1977-1978)
Genere: sit-com

Cast:
Linda Lavin: Alice Hyatt
Beth Howland: Vera Louise Gorman
Vic Tayback: Mel Sharples
Philip McKeon: Tommy Hyatt
Polly Holliday: Florence Jean ‘Flo’ Castleberry
Diane Ladd: Isabelle ‘Belle’ Amanda Dupree
Celia Weston: Jolene Hunnicutt
Marvin Kaplan: Henry

 

Info File

Complete name :ALICE - 2 x 11 - The Eyes Of Texas.avi
Format : AVI
Format/Info : Audio Video Interleave
File size : 243 MiB
Duration : 24mn 42s
Overall bit rate : 1 373 Kbps
Writing application : VirtualDubMod 1.5.10.2 (build 2540/release)
Writing library : VirtualDubMod build 2540/release

Video
ID : 0
Format : MPEG-4 Visual
Format profile : Advanced [email protected]
Format settings, BVOP : 2
Format settings, QPel : No
Format settings, GMC : No warppoints
Format settings, Matrix : Default (H.263)
Codec ID : XVID
Codec ID/Hint : XviD
Duration : 24mn 42s
Bit rate : 1 236 Kbps
Width : 544 pixels
Height : 408 pixels
Display aspect ratio : 0.944
Original display aspect rat : 4:3
Frame rate : 25.000 fps
Color space : YUV
Chroma subsampling : 4:2:0
Bit depth : 8 bits
Scan type : Progressive
Compression mode : Lossy
Bits/(Pixel*Frame) : 0.223
Stream size : 218 MiB (90%)
Writing library : XviD 1.1.2 (UTC 2006-11-01)

Audio
ID : 1
Format : MPEG Audio
Format version : Version 1
Format profile : Layer 3
Mode : Dual mono
Codec ID : 55
Codec ID/Hint : MP3
Duration : 24mn 42s
Bit rate mode : Constant
Bit rate : 128 Kbps
Channel(s) : 2 channels
Sampling rate : 48.0 KHz
Compression mode : Lossy
Stream size : 22.6 MiB (9%)
Alignment : Aligned on interleaves
Interleave, duration : 40 ms (1.00 video frame)
Interleave, preload duratio : 504 ms

Trackers

http://tracker.publicbt.com:80/
http://tracker.istole.it:80/
http://tracker.tntvillage.scambioetico.org:2710/scrape
http://open.demonii.com:1337/scrape
http://tracker.coppersurfer.tk:6969/scrape
http://tracker.openbittorrent.com/scrape