loading...
loading...






Info

Alta infedeltà


3.9
IMDB: 3.9/10 27 votes

Durata: N/A

Released:

Anno: 26 Feb 2010

Direttore:

Premi: N/A

Stato: Released

Paese: Italy

Cast:




“Dall’età di quattordici anni ho lasciato che fossero i testicoli a decidere. E francamente, sono giunto alla conclusione che i miei testicoli non ci capiscono un cazzo.”

Rob Gordon è il proprietario di un fallimentare negozio di dischi su vinile a Chicago. In compagnia dei suoi due dipendenti, che hanno come lui una conoscenza musicale enciclopedica, stila classifiche “Top-five” su qualunque tema. Quando Laura, la sua ragazza di vecchia data, lo lascia è costretto ad esaminare la sua vita e ad entrare, suo malgrado, nell’età adulta attraverso una vera e propria autocoscienza maschile.

Dal romanzo (1995) di Nick Hornby, sceneggiato in quattro tra cui J. Cusack, anche coproduttore. Strutturata su monologhi spiritosi e un po’ autolesionistici, detti dal protagonista guardando in macchina, l’aguzza e garbata commedia si sviluppa a 2 livelli: il negozio con i due maniacali amici-commessi e la sfilata, in flashback o al presente, delle Top Five, le cinque fanciulle che, secondo lui, gli hanno spezzato il cuore.

Trailer


Upload on Youtube

Info File

Video
ID: 1
Format: AVC
Format/Info: Advanced Video Codec
Format profile: [email protected]
Format settings, CABAC: Yes
Format settings, ReFrames: 5 frames
Codec ID: V_MPEG4/ISO/AVC
Duration: 1h 53mn
Bit rate: 5 372 Kbps
Width: 1 280 pixels
Height: 696 pixels
Display aspect ratio: 1.85:1
Frame rate mode: Constant
Frame rate: 23.976 fps
Color space: YUV
Chroma subsampling: 4:2:0
Bit depth: 8 bits
Scan type: Progressive
Bits/(Pixel*Frame): 0.252
Stream size: 4.17 GiB (84%)
Title: Alta Fedeltà (Stephen Frears, 2000)
Writing library: x264 core 125 r2200 999b753
Encoding settings: cabac=1 / ref=5 / deblock=1:0:0 / analyse=0x3:0x113 / me=umh / subme=8 / psy=1 /
psy_rd=1.00:0.00 / mixed_ref=1 / me_range=16 / chroma_me=1 / trellis=1 / 8x8dct=1 / cqm=0 /
deadzone=21,11 / fast_pskip=1 / chroma_qp_offset=-2 / threads=12 / lookahead_threads=2 /
sliced_threads=0 / nr=0 / decimate=1 / interlaced=0 / bluray_compat=0 / constrained_intra=0 /
bframes=3 / b_pyramid=2 / b_adapt=2 / b_bias=0 / direct=3 / weightb=1 / open_gop=0 / weightp=2 /
keyint=240 / keyint_min=24 / scenecut=40 / intra_refresh=0 / rc_lookahead=50 / rc=2pass /
mbtree=1 / bitrate=5372 / ratetol=1.0 / qcomp=0.60 / qpmin=0 / qpmax=69 / qpstep=4 /
cplxblur=20.0 / qblur=0.5 / ip_ratio=1.40 / aq=1:1.00
Language: English
Default: Yes
Forced: No

Audio #1
ID: 2
Format: AC-3
Format/Info: Audio Coding 3
Mode extension: CM (complete main)
Format settings, Endianness: Big
Codec ID: A_AC3
Duration: 1h 53mn
Bit rate mode: Constant
Bit rate: 448 Kbps
Channel count: 6 channels
Channel positions: Front: L C R, Side: L R, LFE
Sampling rate: 48.0 KHz
Bit depth: 16 bits
Compression mode: Lossy
Stream size: 364 MiB (7%)
Title: Italiano AC3 5.1 448Kbps
Language: Italian
Default: Yes
Forced: No

Immagini

Alta Fedeltà (2000), [BDmux 720p – H264 – Ita Eng Ac3 5.1 – MultiSub]

Trackers

http://tracker.publicbt.com:80/
http://tracker.istole.it:80/
http://tracker.tntvillage.scambioetico.org:2710/scrape
http://open.demonii.com:1337/scrape
http://tracker.coppersurfer.tk:6969/scrape
http://tracker.openbittorrent.com/scrape