loading...
loading...






Info

user posted image

.: Scheda della serie :.
Ideatore: Corinne Brinkerhoff

Cast:
Juliet Rylance: Alison Hawthorne-Price
Antony Starr: Garrett Hawthorne
Justin Chatwin: Cam Hawthorne
Megan Ketch: Tessa Ross
Elliot Knight: Brady Ross
Stephanie Leonidas: Sophie Hawthorne
Gabriel Bateman: Jack Hawthorne
Virginia Madsen: Madeline Hawthorne

.: ScreenShot puntata :.

Storia e ambientazione:
American Gothic è una serie televisiva statunitense trasmessa dal 22 giugno 2016 dall’emittente CBS.

Trama
Gli Hawthornes, famiglia altoborghese di Boston, vengono sconvolti in seguito alla scoperta della doppia vita del patriarca, il quale potrebbe aver avuto un passato da serial killer. A deteriorare i rapporti già delicati tra i familiari sono i pesanti sospetti che l’omicida abbia avuto un complice tra i membri della stessa famiglia.

Titolo originale American Gothic
Paese Stati Uniti d’America
Anno 2016
Formato serie TV
Genere drammatico, giallo
Stagioni 1
Episodi 13
Durata 45 min (episodio)
Lingua originale inglese

Info File

[ Info sul file ]
General
Unique ID : 62431012126201647098704405040647330343 (0x2EF7C68BD5F8FA270FD4A3C1556F5A27)
Complete name : American.Gothic.2016.1x01.La.Famiglia.Hawthorne.ITA.ENG.720p.WEB-DLMux.H.264-Speranzah.mkv
Format : Matroska
Format version : Version 4 / Version 2
File size : 1.26 GiB
Duration : 39mn 21s
Overall bit rate : 4 585 Kbps
Encoded date : UTC 2016-09-16 11:57:13
Writing application : mkvmerge v7.6.0 ('Garden of Dreams') 64bit built on Feb 8 2015 15:12:28
Writing library : libebml v1.3.1 + libmatroska v1.4.2
DURATION : 00:38:31.535000000
NUMBER_OF_FRAMES : 549
NUMBER_OF_BYTES : 17918
_STATISTICS_WRITING_APP : mkvmerge v7.6.0 ('Garden of Dreams') 64bit built on Feb 8 2015 15:12:28
_STATISTICS_WRITING_DATE_UTC : 2016-09-16 11:57:13
_STATISTICS_TAGS : BPS DURATION NUMBER_OF_FRAMES NUMBER_OF_BYTES

Video
ID : 1
Format : AVC
Format/Info : Advanced Video Codec
Format profile : [email protected]
Format settings, CABAC : No
Format settings, ReFrames : 2 frames
Codec ID : V_MPEG4/ISO/AVC
Duration : 39mn 21s
Bit rate : 3 918 Kbps
Width : 1 280 pixels
Height : 720 pixels
Display aspect ratio : 16:9
Frame rate mode : Constant
Frame rate : 25.000 fps
Color space : YUV
Chroma subsampling : 4:2:0
Bit depth : 8 bits
Scan type : Progressive
Bits/(Pixel*Frame) : 0.170
Stream size : 1.08 GiB (85%)
Language : English
Default : Yes
Forced : No
Color primaries : BT.709
Transfer characteristics : BT.709
Matrix coefficients : BT.709

Audio #1
ID : 2
Format : AC-3
Format/Info : Audio Coding 3
Mode extension : CM (complete main)
Format settings, Endianness : Big
Codec ID : A_AC3
Duration : 39mn 21s
Bit rate mode : Constant
Bit rate : 192 Kbps
Channel(s) : 2 channels
Channel positions : Front: L R
Sampling rate : 44.1 KHz
Bit depth : 16 bits
Compression mode : Lossy
Stream size : 54.0 MiB (4%)
Title : ITA
Language : Italian
Default : Yes
Forced : Yes

Audio #2
ID : 3
Format : AC-3
Format/Info : Audio Coding 3
Mode extension : CM (complete main)
Format settings, Endianness : Big
Codec ID : A_AC3
Duration : 39mn 21s
Bit rate mode : Constant
Bit rate : 384 Kbps
Channel(s) : 6 channels
Channel positions : Front: L C R, Side: L R, LFE
Sampling rate : 48.0 KHz
Bit depth : 16 bits
Compression mode : Lossy
Stream size : 108 MiB (8%)
Title : ENG
Language : English
Default : No
Forced : No

Text #1
ID : 4
Format : UTF-8
Codec ID : S_TEXT/UTF8
Codec ID/Info : UTF-8 Plain Text
Title : ITA - Forced
Language : Italian
Default : Yes
Forced : Yes

Text #2
ID : 5
Format : UTF-8
Codec ID : S_TEXT/UTF8
Codec ID/Info : UTF-8 Plain Text
Language : Italian
Default : No
Forced : No

Text #3
ID : 6
Format : UTF-8
Codec ID : S_TEXT/UTF8
Codec ID/Info : UTF-8 Plain Text
Language : English
Default : No
Forced : No

Trackers

http://tracker.publicbt.com:80/
http://tracker.istole.it:80/
http://tracker.tntvillage.scambioetico.org:2710/scrape
http://tracker.coppersurfer.tk:6969/scrape
http://tracker.openbittorrent.com/scrape
http://open.demonii.com:1337/scrape