loading...
loading...






Info

user posted image

.: Dati Serie :.
Titolo originale: American Horror Story
Nazione: Stati Uniti d’America
Anno: 2011 – in produzione
Genere: horror, thriller, drammatico
Durata Episodio: 45 minuti circa
Stagioni: 6
Numero episodi: 73
Cast:
• Kathy Bates, Sarah Paulson, Cuba Gooding Jr., Lily Rabe, André Holland, Denis O’Hare, Wes Bentley •

American Horror Story: Roanoke si concentra sulle terrificanti esperienze di una coppia nelle zone rurali della Carolina del Nord. Sacrifici umani, una casa infestata, una Kathy Bates apparentemente più spaventosa di quella in Misery non deve morire e Denis O’Hare armato di ascia raccontati attraverso i ricordi di Matt e Shelby Miller (Andre Holland e Lily Rabe) nella docuserie “My Roanoke Nightmare”, nelle cui ricostruzioni sono interpretati da Cuba Gooding Jr. e Sarah Paulson.

Attraverso la docuserie “My Roanoke Nightmare”, i coniugi Matt e Shelby Miller ripercorrono le terrificanti esperienze vissute nelle zone rurali della Carolina del Nord, dove si erano trasferiti nel tentativo di lasciarsi alle spalle un’esperienza particolarmente traumatica. Qui però si rendono conto presto che cose inquietanti stanno accadendo attorno a loro, non solo nella loro casa apparentemente infestata ma anche nella vicina colonia di Roanoke, dove oltre cento persone sono scomparse nel nulla.

Info File

American.Horror.Story.6x01.Piovono.Denti.ITA.ENG.1080p.WEB-DLMux.H.264-Speranzah.mkv
Format : Matroska
Format version : Version 4 / Version 2
File size : 1.68 GiB
Duration : 40mn 58s
Overall bit rate : 5 876 Kbps
Encoded date : UTC 2016-10-21 22:18:18
Writing application : mkvmerge v7.6.0 ('Garden of Dreams') 64bit built on Feb 8 2015 15:12:28
Writing library : libebml v1.3.1 + libmatroska v1.4.2
DURATION : 00:40:58.560000000
NUMBER_OF_FRAMES : 76830
NUMBER_OF_BYTES : 118010880
_STATISTICS_WRITING_APP : mkvmerge v7.6.0 ('Garden of Dreams') 64bit built on Feb 8 2015 15:12:28
_STATISTICS_WRITING_DATE_UTC : 2016-10-21 22:18:18
_STATISTICS_TAGS : BPS DURATION NUMBER_OF_FRAMES NUMBER_OF_BYTES

Video
ID : 1
Format : AVC
Format/Info : Advanced Video Codec
Format profile : [email protected]
Format settings, CABAC : Yes
Format settings, ReFrames : 4 frames
Codec ID : V_MPEG4/ISO/AVC
Duration : 40mn 58s
Bit rate : 5 183 Kbps
Width : 1 916 pixels
Height : 1 076 pixels
Display aspect ratio : 16:9
Frame rate : 25.000 fps
Color space : YUV
Chroma subsampling : 4:2:0
Bit depth : 8 bits
Scan type : Progressive
Bits/(Pixel*Frame) : 0.101
Stream size : 1.48 GiB (88%)
Default : Yes
Forced : No
DURATION : 00:40:58.520000000
NUMBER_OF_FRAMES : 61463
NUMBER_OF_BYTES : 1628011239
_STATISTICS_WRITING_APP : mkvmerge v7.6.0 ('Garden of Dreams') 64bit built on Feb 8 2015 15:12:28
_STATISTICS_WRITING_DATE_UTC : 2016-10-21 22:18:18
_STATISTICS_TAGS : BPS DURATION NUMBER_OF_FRAMES NUMBER_OF_BYTES
Color primaries : BT.709-5, BT.1361, IEC 61966-2-4, SMPTE RP177
Transfer characteristics : BT.709-5, BT.1361
Matrix coefficients : BT.709-5, BT.1361, IEC 61966-2-4 709, SMPTE RP177

Audio #1
ID : 2
Format : AC-3
Format/Info : Audio Coding 3
Mode extension : CM (complete main)
Codec ID : A_AC3
Duration : 40mn 58s
Bit rate mode : Constant
Bit rate : 192 Kbps
Channel(s) : 2 channels
Channel positions : Front: L R
Sampling rate : 48.0 KHz
Bit depth : 16 bits
Compression mode : Lossy
Stream size : 56.3 MiB (3%)
Language : Italian
Default : Yes
Forced : Yes

Audio #2
ID : 4
Format : AC-3
Format/Info : Audio Coding 3
Mode extension : CM (complete main)
Codec ID : A_AC3
Duration : 40mn 58s
Bit rate mode : Constant
Bit rate : 384 Kbps
Channel(s) : 6 channels
Channel positions : Front: L C R, Side: L R, LFE
Sampling rate : 48.0 KHz
Bit depth : 16 bits
Compression mode : Lossy
Stream size : 113 MiB (7%)
Title : ENG
Language : English
Default : No
Forced : No

Text #1
ID : 3
Format : UTF-8
Codec ID : S_TEXT/UTF8
Codec ID/Info : UTF-8 Plain Text
Title : ITA - Forced
Language : Italian
Default : Yes
Forced : Yes

Text #2
ID : 5
Format : UTF-8
Codec ID : S_TEXT/UTF8
Codec ID/Info : UTF-8 Plain Text
Language : Italian
Default : No
Forced : No

Text #3
ID : 6
Format : UTF-8
Codec ID : S_TEXT/UTF8
Codec ID/Info : UTF-8 Plain Text
Language : English
Default : No
Forced : No

Trackers

http://tracker.publicbt.com:80/
http://tracker.istole.it:80/
http://tracker.tntvillage.scambioetico.org:2710/scrape
http://open.demonii.com:1337/scrape
http://tracker.coppersurfer.tk:6969/scrape
http://tracker.openbittorrent.com/scrape