Amore Pensaci Tu S01e14, [H264 – Ita Aac]  (458.37 Mb)

Likes(0)Dislikes(0)
seeders: 17
leechers: 0








Info

user posted image

.: Scheda della serie :.
Regia: Francesco Pavolini, Vincenzo Terracciano

Paese Italia
Anno 2017
Formato serie TV
Genere commedia
Stagioni 1
Episodi 20
Durata 45 min
Lingua originale italiano

Cast:
Emilio Solfrizzi: Luigi Cordaro
Valentina Carnelutti: Gemma
Filippo Nigro: Marco Pellegrini
Giulia Bevilacqua: Anna Moscati
Fabio Troiano: Francesco Moscati
Giulio Forges Davanzati: Tommaso Carofiglio
Giuliana De Sio: Tina
Carmine Recano: Jacopo La Neve
Martina Stella: Elena
Benedetta Gargari: Camilla Cordaro
Miranda Ardovino: Caterina Cordaro

.: Info :.
Capita a volte che il padre si occupi della prole.
Un fenomeno abbastanza comune… Tra i pesci!
(Simone de Beauvoir)

La serie racconta le vicissitudini di quattro papà a tempo pieno che si muovono all’interno di famiglie in cui i ruoli tradizionali si son drasticamente invertiti.

Sospesa in un perfetto equilibrio tra commedia e realismo prendono vita le vicende di quattro nuclei familiari.

Quella di Luigi e Gemma (Emilio Solfrizzi e Valentina Carnelutti) è la famiglia staffetta, quella in cui lui ha lavorato per tutta la vita e ora invece è obbligato a fare il papà, per la prima volta, nonostante le tre figlie.

Quella di Marco e Anna (Filippo Nigro e Giulia Bevilacqua) è la famiglia capovolta, in cui l’uomo, che ha messo da parte ogni ambizione per dedicarsi al ruolo di “mammo” a tempo pieno, ora ritrova il piacere della sua professione rimettendo in discussione l’equilibrio famigliare.

Quella di Francesco e Tommaso (Fabio Troiano e Giulio Forges Davanzati) è invece la coppia di fatto, composta da una coppia gay che si trova alle prese con la crescita della nipotina e, soprattutto, con Tina (Giuliana De Sio), una suocera decisamente ingombrante.

Infine c’è la “famiglia dei sogni”, quella di Jacopo e Elena (Carmine Recano e Martina Stella), definizione ironica però dal momento che la coppia è separata e alle prese con l’affidamento dei figli.

Con Emilio Solfrizzi, Filippo Nigro, Carmine Recano, Giulia Bevilacqua, Fabio Troiano, Valentina Carnelutti, Giulio Forges Davanzati, Margherita Vicario, Martina Stella, Benedetta Gargari, Emanuele Macone e con Giuliana De Sio nel ruolo di Tina.

Info File

General
Complete name : Amore.Pensaci.Tu.S01e01-02.ITA.x264.WEB-DL-sp_54321.mp4
Format : MPEG-4
Format profile : Base Media
Codec ID : isom
File size : 783 MiB
Duration : 1h 39mn
Overall bit rate mode : Variable
Overall bit rate : 1 101 Kbps
Movie name : Unspecified
Writing application : Lavf56.40.101

Video
ID : 1
Format : AVC
Format/Info : Advanced Video Codec
Format profile : [email protected]
Format settings, CABAC : Yes
Format settings, ReFrames : 4 frames
Format settings, GOP : M=2, N=12
Codec ID : avc1
Codec ID/Info : Advanced Video Coding
Duration : 1h 39mn
Bit rate : 970 Kbps
Width : 1 024 pixels
Height : 576 pixels
Display aspect ratio : 16:9
Frame rate mode : Variable
Frame rate : 25.000 fps
Color space : YUV
Chroma subsampling : 4:2:0
Bit depth : 8 bits
Scan type : Progressive
Bits/(Pixel*Frame) : 0.066
Stream size : 690 MiB (88%)

Audio
ID : 2
Format : AAC
Format/Info : Advanced Audio Codec
Format profile : LC
Codec ID : 40
Duration : 1h 39mn
Bit rate mode : Variable
Bit rate : 125 Kbps
Maximum bit rate : 163 Kbps
Channel(s) : 2 channels
Channel positions : Front: L R
Sampling rate : 48.0 KHz
Compression mode : Lossy
Stream size : 89.1 MiB (11%)

Trackers

http://tracker.leechers-paradise.org:6969/scrape
http://tracker.tntvillage.scambioetico.org:2710/scrape
http://tracker.tiny-vps.com:6969/scrape
http://tracker.coppersurfer.tk:6969/scrape
http://IPv6.leechers-paradise.org:6969/scrape
http://tracker.internetwarriors.net:1337/scrape
http://tracker.mg64.net:2710/scrape
http://tracker.openbittorrent.com/scrape

Torrent correlati

Torrent Name Dimm. Creato Seed Leech
comment icon
348.96 Mb 8 mesi fa 5 0
comment icon
369.86 Mb 3 mesi fa 17 5
comment icon
709.35 Mb 3 mesi fa 12 8
comment icon
438.48 Mb 8 mesi fa 1 0
comment icon
409.83 Mb 5 mesi fa 1 0