loading...
loading...






Info

Amores Perros


8.1
IMDB: 8.1/10 173,489 votes

Durata: 154 min

Released:

Anno: 13 Apr 2001

Direttore:

Premi: Nominated for 1 Oscar. Another 54 wins & 22 nominations.

Budget: 2000000$

Incassi: 20908467$

Stato: Released

Paese: Mexico

Cast:




Città del Messico. Octavio tenta di scappare con Susana, sua cognata, portandosi dietro anche il cane Cofi che può servire per portare a casa qualche soldo in più. Daniel lascia la famiglia per iniziare una nuova vita con la modella Valeria che, nel giorno in cui dovrebbe cominciare a stare con lui, è vittima di un grave incidente. Lì sopraggiunge El Chivo, un ex guerrigliero comunista uscito dal carcere e abile come sicario. L’uomo trova Cofi che sta morendo e lo porta con sé per guarirlo.

Trailer


Upload on Youtube

Info File

Video
ID: 1
Format: AVC
Format/Info: Advanced Video Codec
Format profile: [email protected]
Format settings, CABAC: Yes
Format settings, ReFrames: 5 frames
Codec ID: V_MPEG4/ISO/AVC
Duration: 2h 34mn
Bit rate: 4 584 Kbps
Width: 1 280 pixels
Height: 720 pixels
Display aspect ratio: 16:9
Frame rate mode: Constant
Frame rate: 23.976 fps
Color space: YUV
Chroma subsampling: 4:2:0
Bit depth: 8 bits
Scan type: Progressive
Bits/(Pixel*Frame): 0.207
Stream size: 4.82 GiB (82%)
Title: Amores Perros (Alejandro González Iñárritu, 2000)
Writing library: x264 core 107 r1745 4785e8e
Encoding settings: cabac=1 / ref=5 / deblock=1:0:0 / analyse=0x3:0x133 / me=umh / subme=7 / psy=1 / psy_rd=1.00:0.00 /
mixed_ref=1 / me_range=16 / chroma_me=1 / trellis=1 / 8x8dct=1 / cqm=0 / deadzone=21,11 / fast_pskip=0 /
chroma_qp_offset=-2 / threads=6 / sliced_threads=0 / nr=0 / decimate=1 / interlaced=0 / constrained_intra=0 /
bframes=3 / b_pyramid=2 / b_adapt=1 / b_bias=0 / direct=1 / weightb=1 / open_gop=0 / weightp=2 / keyint=250 /
keyint_min=23 / scenecut=40 / intra_refresh=0 / rc_lookahead=40 / rc=2pass / mbtree=1 / bitrate=4584 /
ratetol=1.0 / qcomp=0.60 / qpmin=10 / qpmax=51 / qpstep=4 / cplxblur=20.0 / qblur=0.5 / ip_ratio=1.40 / aq=1:1.00
Language: Spanish
Default: Yes
Forced: No

Audio #1
ID: 2
Format: AC-3
Format/Info: Audio Coding 3
Mode extension: CM (complete main)
Format settings, Endianness: Big
Codec ID: A_AC3
Duration: 2h 34mn
Bit rate mode: Constant
Bit rate: 448 Kbps
Channel count: 6 channels
Channel positions: Front: L C R, Side: L R, LFE
Sampling rate: 48.0 KHz
Bit depth: 16 bits
Compression mode: Lossy
Stream size: 494 MiB (8%)
Title: Italiano AC3 5.1 448Kbps
Language: Italian
Default: Yes
Forced: No

Immagini

Amores Perros (2000), [BDmux 720p – H264 – Ita Eng Ac3 5.1 – Multisub]
Amores Perros (2000), [BDmux 720p – H264 – Ita Eng Ac3 5.1 – Multisub]
Amores Perros (2000), [BDmux 720p – H264 – Ita Eng Ac3 5.1 – Multisub]
Amores Perros (2000), [BDmux 720p – H264 – Ita Eng Ac3 5.1 – Multisub]
Amores Perros (2000), [BDmux 720p – H264 – Ita Eng Ac3 5.1 – Multisub]
Amores Perros (2000), [BDmux 720p – H264 – Ita Eng Ac3 5.1 – Multisub]
Amores Perros (2000), [BDmux 720p – H264 – Ita Eng Ac3 5.1 – Multisub]

Trackers

http://tracker.publicbt.com:80/
http://tracker.istole.it:80/
http://tracker.tntvillage.scambioetico.org:2710/scrape
http://open.demonii.com:1337/scrape
http://tracker.coppersurfer.tk:6969/scrape
http://tracker.openbittorrent.com/scrape

Torrent correlati

Torrent Name Dimm. Creato Seed Leech
comment icon
699.93 Mb 2 settimane fa 6 0
comment icon
698.9 Mb 2 mesi fa 0 0
comment icon
697.77 Mb 3 mesi fa 0 4
comment icon
0 bytes 3 settimane fa 0 0
comment icon
909.54 Mb 2 mesi fa 1 1