Animali Metropolitani (1987), [XviD – Ita Mp3]  (1.1 Gb)

Likes(0)Dislikes(0)
seeders: 1
leechers: 1








Info

Urban Animals


4.7
IMDB: 4.7/10 22 votes

Durata: N/A

Released:

Anno: N/A

Direttore:

Premi: N/A

Stato: Released

Paese: Italy

Cast:




Anno 2030, in una classe universitaria di scimmioni, due illustri professori illustrano in una conferenza la teoria che è la scimmia a discendere dall’uomo. Per confermarlo proiettano un documentario intitolato “Animali metropolitani” ambientato nella città di Roma del ventesimo secolo……….

 

Trailer


Upload on Youtube

Info File

Video
ID : 0
Format : MPEG-4 Visual
Format profile : Advanced [email protected]
Format settings, BVOP : Yes
Format settings, QPel : No
Format settings, GMC : No warppoints
Format settings, Matrix : Default (H.263)
Codec ID : XVID
Codec ID/Hint : XviD
Duration : 1h 31mn
Bit rate : 1 517 Kbps
Width : 624 pixels
Height : 352 pixels
Display aspect ratio : 16:9
Frame rate : 25.000 fps
Color space : YUV
Chroma subsampling : 4:2:0
Bit depth : 8 bits
Scan type : Progressive
Bits/(Pixel*Frame) : 0.276
Stream size : 993 MiB (89%)
Writing library : XviD 1.2.1 (UTC 2008-12-04)

Audio
ID : 1
Format : MPEG Audio
Format version : Version 1
Format profile : Layer 3
Codec ID : 55
Codec ID/Hint : MP3
Duration : 1h 31mn
Bit rate mode : Variable
Bit rate : 180 Kbps
Minimum bit rate : 32.0 Kbps
Channel(s) : 2 channels
Sampling rate : 48.0 KHz
Stream size : 118 MiB (11%)
Alignment : Aligned on interleaves
Interleave, duration : 24 ms (0.60 video frame)
Interleave, preload duration : 446 ms
Writing library : LAME3.98r
Encoding settings : -m s -V 4 -q 0 -lowpass 17.5 --vbr-new -b 32

Trackers

http://tracker.istole.it:80/
http://tracker.publicbt.com:80/
http://tracker.tntvillage.scambioetico.org:2710/scrape
http://open.demonii.com:1337/scrape
http://tracker.coppersurfer.tk:6969/scrape
http://tracker.openbittorrent.com/scrape