Info

user posted image

.: Scheda della serie :.
Ideatore Stephen Levinson

Paese Stati Uniti d’America
Anno 2015 – in produzione
Formato serie TV
Genere commedia, drammatico, sportivo
Stagioni 2
Episodi 20
Durata 27 min (episodio)
Lingua originale inglese

Cast:
Dwayne Johnson: Spencer Strasmore
Rob Corddry: Joe Krutel
John David Washington: Ricky Jerret
Omar Benson Miller: Charles Greane
Donovan W. Carter: Vernon
Troy Garity: Jason
London Brown: Reggie
Jazmyn Simon: Julie Greane
Andy Garcia: Andre Allen

Doppiatori Italiani:
Luca Ward: Spencer Strasmore
Luigi Ferraro: Joe Krutel
Francesco Venditti: Ricky Jerret
Gianluca Crisafi: Charles Greane
Alessandro Ballico: Vernon
Emiliano Reggente: Jason
Alessio Nissolino: Reggie
Perla Liberatori: Julie Greane
Massimo Lodolo: Andre Allen

.: Info :.
Ballers è una serie televisiva statunitense creata da Stephen Levinson. La serie è interpretata da Dwayne Johnson e ha debuttato il 21 giugno 2015 su HBO.

Il 10 luglio 2015 la serie è stata rinnovata per una seconda stagione, che andrà in onda dal 17 luglio 2016.

Il 28 luglio 2016, la serie è stata rinnovata anche per una terza stagione.

Info File

General
Unique ID : 55329825407721294089738861619463911735 (0x29A02302827AF9698D78FAB6D4D4F937)
Complete name : Ballers.S02.ITA.ENG.BDMux.x264-sp_54321/Ballers.S02e01.Vecchie.Abitudini.ITA.ENG.576p.BDMux.x264-sp_54321.mkv
Format : Matroska
Format version : Version 4 / Version 2
File size : 429 MiB
Duration : 25mn 31s
Overall bit rate : 2 349 Kbps
Encoded date : UTC 2017-04-15 14:02:53
Writing application : mkvmerge v9.6.0 ('Slave To Your Mind') 64bit
Writing library : libebml v1.3.4 + libmatroska v1.4.5
DURATION : 00:23:07.814000000
NUMBER_OF_FRAMES : 522
NUMBER_OF_BYTES : 20896
_STATISTICS_WRITING_APP : mkvmerge v9.6.0 ('Slave To Your Mind') 64bit
_STATISTICS_WRITING_DATE_UTC : 2017-04-15 14:02:53
_STATISTICS_TAGS : BPS DURATION NUMBER_OF_FRAMES NUMBER_OF_BYTES

Video
ID : 1
Format : AVC
Format/Info : Advanced Video Codec
Format profile : [email protected]
Format settings, CABAC : Yes
Format settings, ReFrames : 8 frames
Codec ID : V_MPEG4/ISO/AVC
Duration : 25mn 31s
Bit rate : 1 726 Kbps
Width : 1 024 pixels
Height : 576 pixels
Display aspect ratio : 16:9
Frame rate mode : Constant
Frame rate : 25.000 fps
Color space : YUV
Chroma subsampling : 4:2:0
Bit depth : 8 bits
Scan type : Progressive
Bits/(Pixel*Frame) : 0.117
Stream size : 315 MiB (73%)
Writing library : x264 core 142 r2491 24e4fed
Encoding settings : cabac=1 / ref=8 / deblock=1:-1:-1 / analyse=0x1:0x131 / me=umh / subme=9 / psy=1 / psy_rd=1.00:0.15 / mixed_ref=1 / me_range=16 / chroma_me=1 / trellis=2 / 8x8dct=0 / cqm=0 / deadzone=21,11 / fast_pskip=1 / chroma_qp_offset=-3 / threads=3 / lookahead_threads=1 / sliced_threads=0 / nr=0 / decimate=1 / interlaced=0 / bluray_compat=0 / constrained_intra=0 / bframes=3 / b_pyramid=2 / b_adapt=2 / b_bias=0 / direct=3 / weightb=1 / open_gop=0 / weightp=2 / keyint=250 / keyint_min=25 / scenecut=40 / intra_refresh=0 / rc_lookahead=60 / rc=crf / mbtree=1 / crf=20.0 / qcomp=0.60 / qpmin=0 / qpmax=69 / qpstep=4 / vbv_maxrate=20000 / vbv_bufsize=25000 / crf_max=0.0 / nal_hrd=none / filler=0 / ip_ratio=1.40 / aq=1:1.00
Language : English
Default : Yes
Forced : No
Color range : Limited
Color primaries : BT.709
Transfer characteristics : BT.709
Matrix coefficients : BT.709

Audio #1
ID : 2
Format : AC-3
Format/Info : Audio Coding 3
Mode extension : CM (complete main)
Format settings, Endianness : Big
Codec ID : A_AC3
Duration : 25mn 31s
Bit rate mode : Constant
Bit rate : 192 Kbps
Channel(s) : 2 channels
Channel positions : Front: L R
Sampling rate : 48.0 KHz
Compression mode : Lossy
Stream size : 35.0 MiB (8%)
Title : ITA
Language : Italian
Default : Yes
Forced : Yes

Audio #2
ID : 3
Format : AC-3
Format/Info : Audio Coding 3
Mode extension : CM (complete main)
Format settings, Endianness : Big
Codec ID : A_AC3
Duration : 25mn 31s
Bit rate mode : Constant
Bit rate : 384 Kbps
Channel(s) : 6 channels
Channel positions : Front: L C R, Side: L R, LFE
Sampling rate : 48.0 KHz
Compression mode : Lossy
Stream size : 70.1 MiB (16%)
Title : ENG
Language : English
Default : No
Forced : No

Text #1
ID : 4
Format : UTF-8
Codec ID : S_TEXT/UTF8
Codec ID/Info : UTF-8 Plain Text
Title : ITA - Forced
Language : Italian
Default : Yes
Forced : Yes

Text #2
ID : 5
Format : UTF-8
Codec ID : S_TEXT/UTF8
Codec ID/Info : UTF-8 Plain Text
Title : ITA
Language : Italian
Default : No
Forced : No

Text #3
ID : 6
Format : UTF-8
Codec ID : S_TEXT/UTF8
Codec ID/Info : UTF-8 Plain Text
Title : ENG
Language : English
Default : No
Forced : No

Trackers

http://tracker.leechers-paradise.org:6969/scrape
http://tracker.tntvillage.scambioetico.org:2710/scrape
http://tracker.tiny-vps.com:6969/scrape
http://tracker.internetwarriors.net:1337/scrape
http://tracker.mg64.net:2710/scrape
http://tracker.coppersurfer.tk:6969/scrape
http://IPv6.leechers-paradise.org:6969/scrape
http://tracker.openbittorrent.com/scrape