loading...
loading...






Info

user posted image

 

.:Scheda:.

Titolo originale Big Bad Beetleborgs/Beetleborgs Metallix
Paese Stati Uniti d’America
Anno 1996-1998
Formato serie TV
Genere avventura, azione
Stagioni 2
Episodi 88
Durata 20 min
Lingua originale
Caratteristiche tecniche
Rapporto
Colore colore
Audio
Crediti
Prima visione
Prima TV Stati Uniti d’America
Dal 7 settembre 1996
Al 2 marzo 1998
Rete televisiva Fox Kids
Prima TV in italiano (gratuita)
Dal 1997
Al
Rete televisiva Italia 1, Frisbee

 

Beetleborgs – Quando si scatena il vento dell’avventura è una serie televisiva statunitense. Prodotta dalla Saban, è fortemente ispirata alla serie Power Rangers.
Big Bad Beetleborgs (successivamente Beetleborgs Metallix) è una serie televisiva live action. La serie è una co-produzione della Toei Company e Bugboy Productions.
E’ andata in onda per due stagioni su Fox Kids tra 7 settembre 1996 e 2 marzo 1998.
Le repliche successivamente in onda su UPN bambini dal 1998 al 1999.
Il 7 maggio 2010, come parte della vendita del franchise Power Rangers, il copyright per Beetleborgs fu trasferito da BVS intrattenimento per filmati combattimento di Saban Capital che serie adattato dalla serie tokusatsu Metal Heroes (prima stagione) B-Fighter di Juukou e B-Fighter Kabuto (seconda stagione).:.
.:Trama:.

BEETLEBORGS
Drew McCormick, Jo McCormick e Roland Williams sono fuori da Zoom Comics,leggendo gli ultimi fumetti dei BeetleBorgs quando i bulli locali Van e Trip per dimostrare il loro coraggio chiedono loro di entrare il vecchio abbandonato Hillhurst House. Essi accettano e quando Jo si imbatte in un vecchio organo a canne, un ‘phasm’ denominato Flabber emerge. Come ricompensa per aver salvato lui dall’organo, egli concede loro ogni un desiderio – tutti vogliono diventare BeetleBorgs. Sfortunatamente, in questo modo i nemici giurati di Beetleborgs, noti come Magnavors, Esono dai comic ed entrano nel mondo 3D. Ora Drew, Roland e Jo devono usare i loro poteri per salvare il mondo e rimandare tutti i loro nemici indietro nel mondo 2D.:.

.:Personaggi ed Interpreti:.

Interpreti e personaggi

Created by
Haim Saban
Shuki Levy
Starring
Wesley Barker
Herbie Baez
Shannon Chandler
Brittany Konarzewski
Billy Forester
Vivian Smallwood
Kim Delgado
Channe Nolen
Christopher Cho
Claudine Barros
Marshal Hilton
Blake Torney
David Fletcher
Joe Hackett
Frank Tahoe
Lina Godouse
Composer(s)
Jeremy Sweet
Barry Trop
Inon Zur:.

 

.:Elenco degli episodi:.

 

-01-Un sogno che diventa realta’1ª parte.
-02-Un sogno che diventa realta’2ª parte
-03-Hillurst E’ In Pericolo.
-04-Il Fantasma E’ Fritto.
-05-Il Tesoro Di Casa Hillurst.
-06-Mai Gridare Al Lupo Mannaro.
-07-Basta La Parola Magica.
-08-Ciak,Si Gira!…Tra I Mostri.
-09-L’Amuleto Della Sottomissione.
-10-Assalto Al Treno.
-11-Roba da gatti!
-12-La Flabolosa Avventura Di Drew e Flabber.
-13-L’arma Segreta.
-14-La Pozione Malefica.
-15-Il Gobbo Di Hillhurst.
-16-Un Beetleborg Rompiscatole.
-17-Un Nascondiglio Stregato.By.Rotheanimal.
-18-Un Mostruoso gruppo Rock.
-19-La Fiera Dei Mostri.
-20-La Pianta Della Discordia.
-21-Visite Private.
-22-Incontri Ravvicinati.
-23-La Forza Del Pensiero.
-24-Il Rapimento.
-25-Vampiri A Charterville.
-26-Chi Si E’ Nascosto In Casa.
-27-La Nascita Del Beetleborg Bianco.
-28-La Vendetta Di Vexor.
-29-Arriva Il Beettleborg Bianco.
-30-L’Asse Energetico.
-31-Scontro Finale.
-32-Il Pirata Barbanera.
-33-Un Natale Fantasma-Gorico.
-34-Uno Strano Regalo Di Compleanno.
-35-Il Fantasma Di Hillhurst.
-36-Operazione Frankenbeans.
-37-La Mummia Ballerina.
-38-Il Fantasma Del Vecchio Hillhurst.
-39-La Strana Trasformazione Di Jo.
-40-Lupetto Innamorato.
-41-Il Mistero Del Lago.
-42-La Sposa Di Frank.
-43-Promesse Da Vampiro.
-44-Lo Scambio.
-45-Flabber In Pericolo.
-46-Stato Di Ipnosi.
-47-La Superstizione.
-48-Una Culla Originale.
-49-Disavventure uno Scrittore.
-50-Mostro dei Mostri.
-51-L’Istrutore Ginnastica.
-52-Cacciatore Mostri.
-53-Vexor Last Laught (Eng).

Info File

General
Unique ID : 179613666843245736359527763265942402143 (0x8720557D0E7371DF92D95F3C3E3B345F)
Complete name :1x49-Disavventure uno Scrittore.By.Rotheanimal.mkv
Format : Matroska
Format version : Version 4 / Version 2
File size : 311 MiB
Duration : 20mn 19s
Overall bit rate : 2 141 Kbps
Movie name : 1x49-Disavventure uno Scrittore.By.Rotheanimal
Encoded date : UTC 2016-10-01 13:42:42
Writing application : mkvmerge v9.2.0 ('Photograph') 64bit
Writing library : libebml v1.3.3 + libmatroska v1.4.4

Video
ID : 1
Format : AVC
Format/Info : Advanced Video Codec
Format profile : [email protected]
Format settings, CABAC : Yes
Format settings, ReFrames : 4 frames
Codec ID : V_MPEG4/ISO/AVC
Duration : 20mn 19s
Bit rate : 1 786 Kbps
Width : 640 pixels
Height : 480 pixels
Display aspect ratio : 4:3
Frame rate mode : Variable
Frame rate : 24.773 fps
Color space : YUV
Chroma subsampling : 4:2:0
Bit depth : 8 bits
Scan type : Progressive
Bits/(Pixel*Frame) : 0.235
Stream size : 260 MiB (83%)
Title : 1x49-Disavventure uno Scrittore.By.Rotheanimal
Writing library : x264 core 142 r2479 dd79a61
Encoding settings : cabac=1 / ref=3 / deblock=1:-1:-1 / analyse=0x1:0x111 / me=hex / subme=7 / psy=1 / psy_rd=1.00:0.15 / mixed_ref=1 / me_range=16 / chroma_me=1 / trellis=1 / 8x8dct=0 / cqm=0 / deadzone=21,11 / fast_pskip=1 / chroma_qp_offset=-3 / threads=6 / lookahead_threads=1 / sliced_threads=0 / nr=0 / decimate=1 / interlaced=0 / bluray_compat=0 / constrained_intra=0 / bframes=3 / b_pyramid=2 / b_adapt=1 / b_bias=0 / direct=1 / weightb=1 / open_gop=0 / weightp=2 / keyint=300 / keyint_min=30 / scenecut=40 / intra_refresh=0 / rc_lookahead=40 / rc=crf / mbtree=1 / crf=18.0 / qcomp=0.60 / qpmin=0 / qpmax=69 / qpstep=4 / vbv_maxrate=20000 / vbv_bufsize=25000 / crf_max=0.0 / nal_hrd=none / filler=0 / ip_ratio=1.40 / aq=1:1.00
Language : English
Default : Yes
Forced : Yes
Color range : Limited
Color primaries : BT.601 NTSC
Transfer characteristics : BT.709
Matrix coefficients : BT.601

Audio #1
ID : 2
Format : AC-3
Format/Info : Audio Coding 3
Mode extension : CM (complete main)
Format settings, Endianness : Big
Codec ID : A_AC3
Duration : 20mn 19s
Bit rate mode : Constant
Bit rate : 192 Kbps
Channel(s) : 2 channels
Channel positions : Front: L R
Sampling rate : 48.0 KHz
Frame rate : 31.250 fps (1536 spf)
Compression mode : Lossy
Stream size : 27.9 MiB (9%)
Title : Ac3(Ita).By.Rotheanimal
Language : Italian
Default : Yes
Forced : No

Audio #2
ID : 3
Format : AAC
Format/Info : Advanced Audio Codec
Format profile : LC
Codec ID : A_AAC
Duration : 20mn 19s
Bit rate : 160 Kbps
Channel(s) : 2 channels
Channel positions : Front: L R
Sampling rate : 48.0 KHz
Frame rate : 46.875 fps (1024 spf)
Compression mode : Lossy
Stream size : 23.3 MiB (7%)
Title : Aac(Eng).By.Rotheanimal
Language : English
Default : No
Forced : No

Text
ID : 4
Format : UTF-8
Codec ID : S_TEXT/UTF8
Codec ID/Info : UTF-8 Plain Text
Duration : 19mn 40s
Bit rate : 0 bps
Count of elements : 4
Stream size : 132 Bytes (0%)
Title : Srt
Language : English
Default : Yes
Forced : Yes

Trackers

http://tracker.publicbt.com:80/
http://tracker.istole.it:80/
http://tracker.tntvillage.scambioetico.org:2710/scrape
http://open.demonii.com:1337/scrape
http://tracker.coppersurfer.tk:6969/scrape
http://tracker.openbittorrent.com/scrape