loading...
loading...






Info

user posted image
BLINDSPOT
STAGIONE 2
WEB-DLMUX 1080p.: Dati Serie :.

Titolo: Blindspot
Titolo originale: Blindspot
Paese: USA
Anno: 2015 – in produzione
Formato: Serie TV
Genere: Azione, Crimine, Drammatico, Poliziesco, Thriller
Stagione: 2
Episodi: 46
Durata: 44 min. (episodio)
Ideatore: Jeff Rake, Carlos Vila, Javier Holgado
Cast:
• Sullivan Stapleton: Kurt Weller
• Jaimie Alexander: Jane Doe / Taylor Shaw
• Rob Brown: Edgar Reed
• Audrey Esparza: Tasha Zapata
• Ashley Johnson: Patterson
• Ukweli Roach: Dr. Borden
• Marianne Jean-Baptiste: Bethany Mayfair

Un borsone viene lasciato incustodito a Times Square. D’un tratto qualcosa, o meglio, qualcuno, all’interno della sacca si muove! La cerniera si apre. Esce una donna. E’ completamente nuda! E tutta tatuata…

Non sa chi é, da dove viene e chi sia stato a farle quei misteriosi tatuaggi che ricoprono il suo corpo ma tra questi vi è il nome dell’agente dell’FBI Kurt Weller (Sullivan Stapleton).
Essendo priva di memoria, la donna ritrovata nel borsone a Times Square assume il nome di Jane Doe (Jaimie Alexander), l’appellativo dato a coloro che perdono coscienza della propria identità.

Il detective e la sua squadra – Edgar Reade, Tasha Zapata e Patterson – iniziano ad indagare per decifrare i numerosi tatuaggi che permetteranno di risolvere diversi crimini.

Inizialmente si pensa che la donna sia Taylor Shaw, la vicina di casa di Weller quando erano bambini, che era scomparsa 25 anni prima e creduta morta; ma alla fine della prima stagione vengono ritrovati i resti della vera Taylor Shaw e l’agente Waller, diventato sempre più potente dopo la morte del capo dell’FBI, arresta Jane Doe perché convinto di essere stato ingannato fin dall’inizio dalla ragazza sulla sua identità.

La seconda stagione sarà incentrata sul passato della protagonista che ancora per poco chiameremo Jane Doe. Vedremo anche la presenza di una organizzazione che cospira contro il governo, capeggiata dalla misteriosa figura di Shepherd.

Tra i nuovi personaggi di Blindspot 2, oltre ad Archie Panjabi, nel ruolo di capo della divisione segreta dell’NSA che ha il compito di monitorare il caso di Jane da lontano, entreranno a far parte del cast anche Luke Mitchell e Michelle Hurd. I personaggi di Mitchell e Hurd saranno due membri dell’oscura organizzazione che ha inviato Jane all’FBI senza memoria e con il corpo coperto di tatuaggi criptici.

 

Info File

Blindspot.2x01.Niente.Di.Piu.Pericoloso.ITA.ENG.1080p.WEB-DLMux.H264-Speranzah.mkv
Format : Matroska
Format version : Version 4 / Version 2
File size : 1.72 GiB
Duration : 41mn 17s
Overall bit rate : 5 956 Kbps
Encoded date : UTC 2016-09-28 21:11:28
Writing application : mkvmerge v7.6.0 ('Garden of Dreams') 64bit built on Feb 8 2015 15:12:28
Writing library : libebml v1.3.1 + libmatroska v1.4.2
DURATION : 00:41:17.696000000
NUMBER_OF_FRAMES : 77428
NUMBER_OF_BYTES : 59464704
_STATISTICS_WRITING_APP : mkvmerge v7.6.0 ('Garden of Dreams') 64bit built on Feb 8 2015 15:12:28
_STATISTICS_WRITING_DATE_UTC : 2016-09-28 21:11:28
_STATISTICS_TAGS : BPS DURATION NUMBER_OF_FRAMES NUMBER_OF_BYTES

Video
ID : 1
Format : AVC
Format/Info : Advanced Video Codec
Format profile : [email protected]
Format settings, CABAC : Yes
Format settings, ReFrames : 4 frames
Codec ID : V_MPEG4/ISO/AVC
Duration : 41mn 17s
Bit rate : 5 261 Kbps
Width : 1 916 pixels
Height : 1 076 pixels
Display aspect ratio : 16:9
Frame rate : 25.000 fps
Color space : YUV
Chroma subsampling : 4:2:0
Bit depth : 8 bits
Scan type : Progressive
Bits/(Pixel*Frame) : 0.102
Stream size : 1.52 GiB (88%)
Language : English
Default : Yes
Forced : No
Color primaries : BT.709-5, BT.1361, IEC 61966-2-4, SMPTE RP177
Transfer characteristics : BT.709-5, BT.1361
Matrix coefficients : BT.709-5, BT.1361, IEC 61966-2-4 709, SMPTE RP177

Audio #1
ID : 2
Format : AC-3
Format/Info : Audio Coding 3
Mode extension : CM (complete main)
Codec ID : A_AC3
Duration : 41mn 17s
Bit rate mode : Constant
Bit rate : 192 Kbps
Channel(s) : 2 channels
Channel positions : Front: L R
Sampling rate : 48.0 KHz
Bit depth : 16 bits
Compression mode : Lossy
Stream size : 56.7 MiB (3%)
Title : ITA
Language : Italian
Default : Yes
Forced : Yes

Audio #2
ID : 3
Format : AC-3
Format/Info : Audio Coding 3
Mode extension : CM (complete main)
Codec ID : A_AC3
Duration : 41mn 17s
Bit rate mode : Constant
Bit rate : 384 Kbps
Channel(s) : 6 channels
Channel positions : Front: L C R, Side: L R, LFE
Sampling rate : 48.0 KHz
Bit depth : 16 bits
Compression mode : Lossy
Stream size : 113 MiB (6%)
Title : ENG
Language : English
Default : No
Forced : No

Text #1
ID : 4
Format : UTF-8
Codec ID : S_TEXT/UTF8
Codec ID/Info : UTF-8 Plain Text
Title : ITA - Forced
Language : Italian
Default : Yes
Forced : Yes

Text #2
ID : 5
Format : UTF-8
Codec ID : S_TEXT/UTF8
Codec ID/Info : UTF-8 Plain Text
Language : Italian
Default : No
Forced : No

Text #3
ID : 6
Format : UTF-8
Codec ID : S_TEXT/UTF8
Codec ID/Info : UTF-8 Plain Text
Language : English
Default : No
Forced : No

Trackers

http://tracker.istole.it:80/
http://tracker.publicbt.com:80/
http://tracker.tntvillage.scambioetico.org:2710/scrape
http://open.demonii.com:1337/scrape
http://tracker.openbittorrent.com/scrape
http://tracker.coppersurfer.tk:6969/scrape