loading...
loading...






Info

 

user posted image

.: Scheda della serie :.
Creatore: Martin Gero

Cast:
Sullivan Stapleton: Kurt Weller
Jaimie Alexander: Alice “Remi” Kruger aka Jane Doe
Rob Brown: Edgar Reed
Audrey Esparza: Tasha Zapata
Ashley Johnson: Patterson
Ukweli Roach: Dr. Borden
Marianne Jean-Baptiste: Bethany Mayfair
Archie Panjabi: Nas Kamal
Luke Mitchell: Roman
Michelle Hurd: Shepherd
Storia e ambientazione:
Blindspot è una serie televisiva statunitense creata da Martin Gero con protagonisti Jaimie Alexander e Sullivan Stapleton.

La serie è trasmessa sulla NBC dal 21 settembre 2015.[2] Il 9 novembre 2015 la serie è stata rinnovata per una seconda stagione, il cui debutto è fissato per il 14 settembre 2016.[3]

In Italia, la prima stagione è stata trasmessa in prima visione su Italia 1, ma il primo episodio è stato trasmesso in contemporanea anche su: Italia 2, TOP Crime, La 5 e Mediaset Extra; il 10 maggio 2016, per proseguire con gli altri episodi solo sulla rete principale. Il 14 aprile 2016, viene girato a Milano un flashmob che riprende l’inizio della prima puntata della serie.

Trama
Un borsone viene lasciato incustodito a Times Square. Al suo interno una donna si risveglia completamente nuda, ricoperta di tatuaggi e priva di qualsiasi ricordo. Non sa chi é, da dove viene e chi sia stato a farle quei tatuaggi. Uno di questi tatuaggi la collega all’FBI dato che è il nome di un agente speciale, ovvero Kurt Weller. La donna, chiamata successivamente Jane Doe, viene affidata all’FBI e tramite la risoluzione di alcuni tatuaggi, Jane, insieme alla squadra composta dall’agente Weller, Edgar Reade, Tasha Zapata e Patterson, risolve diversi crimini.

Titolo originale Blindspot
Paese Stati Uniti d’America
Anno 2015 – in produzione
Formato serie TV
Genere Azione, Crimine, Drammatico, Mistero, Poliziesco, Thriller
Stagioni 2
Episodi 46
Durata 43 min (episodio)
Lingua originale inglese

Info File

General
Unique ID : 243975795784703591561814274350967743758 (0xB78C0771D5F781119313768263A8E50E)
Complete name : Blindspot.S02E01.ITA.ENG.WEB-DL.x264-sp_54321/Blindspot.S02E01.ITA.ENG.WEB-DL.x264-sp_54321.mkv
Format : Matroska
Format version : Version 4 / Version 2
File size : 386 MiB
Duration : 43 min
Overall bit rate : 1 255 kb/s
Encoded date : UTC 2016-09-29 09:09:35
Writing application : mkvmerge v9.4.2 ('So High') 64bit
Writing library : libebml v1.3.4 + libmatroska v1.4.5

Video
ID : 1
Format : AVC
Format/Info : Advanced Video Codec
Format profile : [email protected]
Format settings, CABAC : Yes
Format settings, ReFrames : 5 frames
Codec ID : V_MPEG4/ISO/AVC
Duration : 43 min
Bit rate : 927 kb/s
Width : 720 pixels
Height : 400 pixels
Display aspect ratio : 16:9
Frame rate mode : Constant
Frame rate : 23.976 (23976/1000) FPS
Color space : YUV
Chroma subsampling : 4:2:0
Bit depth : 8 bits
Scan type : Progressive
Bits/(Pixel*Frame) : 0.134
Stream size : 286 MiB (74%)
Writing library : x264 core 148 r2597M e86f3a1
Encoding settings : cabac=1 / ref=5 / deblock=1:-1:-1 / analyse=0x3:0x113 / me=umh / subme=9 / psy=1 / psy_rd=1.00:0.15 / mixed_ref=1 / me_range=16 / chroma_me=1 / trellis=2 / 8x8dct=1 / cqm=0 / deadzone=21,11 / fast_pskip=1 / chroma_qp_offset=-3 / threads=12 / lookahead_threads=1 / sliced_threads=0 / nr=0 / decimate=1 / interlaced=0 / bluray_compat=0 / constrained_intra=0 / bframes=3 / b_pyramid=2 / b_adapt=2 / b_bias=0 / direct=3 / weightb=1 / open_gop=0 / weightp=2 / keyint=250 / keyint_min=23 / scenecut=40 / intra_refresh=0 / rc_lookahead=50 / rc=crf / mbtree=1 / crf=19.0 / qcomp=0.60 / qpmin=0 / qpmax=69 / qpstep=4 / ip_ratio=1.40 / aq=1:1.00
Language : English
Default : Yes
Forced : No

Audio #1
ID : 2
Format : AAC
Format/Info : Advanced Audio Codec
Format profile : LC
Codec ID : A_AAC
Duration : 43 min
Bit rate : 196 kb/s
Channel(s) : 2 channels
Channel positions : Front: L R
Sampling rate : 48.0 kHz
Frame rate : 46.875 FPS (1024 spf)
Compression mode : Lossy
Delay relative to video : -43 ms
Stream size : 60.4 MiB (16%)
Title : Italiano
Language : Italian
Default : Yes
Forced : Yes

Audio #2
ID : 3
Format : AAC
Format/Info : Advanced Audio Codec
Format profile : LC
Codec ID : A_AAC
Duration : 43 min
Bit rate : 128 kb/s
Channel(s) : 2 channels
Channel positions : Front: L R
Sampling rate : 48.0 kHz
Frame rate : 46.875 FPS (1024 spf)
Compression mode : Lossy
Delay relative to video : -43 ms
Stream size : 39.4 MiB (10%)
Title : English
Language : English
Default : No
Forced : No

Text #1
ID : 4
Format : UTF-8
Codec ID : S_TEXT/UTF8
Codec ID/Info : UTF-8 Plain Text
Duration : 42 min
Bit rate : 0 b/s
Count of elements : 7
Stream size : 307 Bytes (0%)
Title : Italiano
Language : Italian
Default : Yes
Forced : Yes

Text #2
ID : 5
Format : UTF-8
Codec ID : S_TEXT/UTF8
Codec ID/Info : UTF-8 Plain Text
Duration : 42 min
Bit rate : 76 b/s
Count of elements : 678
Stream size : 23.9 KiB (0%)
Title : Italiano
Language : Italian
Default : No
Forced : No

Text #3
ID : 6
Format : UTF-8
Codec ID : S_TEXT/UTF8
Codec ID/Info : UTF-8 Plain Text
Duration : 42 min
Bit rate : 76 b/s
Count of elements : 848
Stream size : 24.1 KiB (0%)
Title : English
Language : English
Default : No
Forced : No

General
Complete name : Blindspot.S02E01.ITA.ENG.WEB-DL.x264-sp_54321/Subs/Blindspot.S02E01.ITA.ENG.WEB-DL.x264-sp_54321.en.srt
Format : SubRip
File size : 53.8 KiB

Text
Format : SubRip
Compression mode : Lossless

General
Complete name : Blindspot.S02E01.ITA.ENG.WEB-DL.x264-sp_54321/Subs/Blindspot.S02E01.ITA.ENG.WEB-DL.x264-sp_54321.ita.srt
Format : SubRip
File size : 50.3 KiB

Text
Format : SubRip
Compression mode : Lossless

General
Complete name : Blindspot.S02E01.ITA.ENG.WEB-DL.x264-sp_54321/Subs/Blindspot.S02E01.ITA.ENG.WEB-DL.x264-sp_54321.srt
Format : SubRip
File size : 576 Bytes

Text
Format : SubRip
Compression mode : Lossless

Trackers

http://tracker.istole.it:80/
http://tracker.publicbt.com:80/
http://tracker.tntvillage.scambioetico.org:2710/scrape
http://open.demonii.com:1337/scrape
http://tracker.coppersurfer.tk:6969/scrape
http://tracker.openbittorrent.com/scrape