loading...
loading...






Info

Bruiser


5.3
IMDB: 5.3/10 4,651 votes

Durata: 99 min

Released:

Anno: 13 Feb 2000

Direttore:

Premi: 1 nomination.

Budget: 5000000$

Stato: Released

Paese: France, Canada, USA

Cast:




Maltrattato dal suo prossimo (moglie infedele, dispotico datore di lavoro, commercialista disonesto), Henry si sveglia una mattina col volto coperto da una maschera bianca (inasportabile) da clown che lo trasforma in una persona volitiva, energetica e vendicativa. Dopo essersi vendicato di chi gli ha fatto del male, ritrova il suo vero volto, ma non…………….

Trailer


Upload on Youtube

Info File

Video
ID : 0
Format : MPEG-4 Visual
Format profile : Advanced [email protected]
Format settings, BVOP : Yes
Format settings, QPel : No
Format settings, GMC : No warppoints
Format settings, Matrix : Default (H.263)
Codec ID : XVID
Codec ID/Hint : XviD
Duration : 1h 35mn
Bit rate : 1 045 Kbps
Width : 688 pixels
Height : 386 pixels
Display aspect ratio : 16:9
Frame rate : 25.000 fps
Color space : YUV
Chroma subsampling : 4:2:0
Bit depth : 8 bits
Scan type : Progressive
Bits/(Pixel*Frame) : 0.157
Stream size : 712 MiB (72%)
Writing library : XviD 1.1.2 (UTC 2006-11-01)

Audio #1
ID : 1
Format : AC-3
Format/Info : Audio Coding 3
Mode extension : CM (complete main)
Codec ID : 2000
Duration : 1h 35mn
Bit rate mode : Constant
Bit rate : 192 Kbps
Channel(s) : 2 channels
Channel positions : Front: L R
Sampling rate : 48.0 KHz
Bit depth : 16 bits
Stream size : 131 MiB (13%)
Alignment : Split accross interleaves
Interleave, duration : 40 ms (1.00 video frame)
Interleave, preload duration : 500 ms

Immagini

Bruiser – La Vendetta Non Ha Volto (2000) George A. Romero, [XviD – Ita Eng Ac3]

Trackers

http://tracker.istole.it:80/
http://tracker.publicbt.com:80/
http://tracker.tntvillage.scambioetico.org:2710/scrape
http://open.demonii.com:1337/scrape
http://tracker.openbittorrent.com/scrape
http://tracker.coppersurfer.tk:6969/scrape