Camera con vista (1985), [BDmux]  (4.54 Gb)

Likes(0)Dislikes(0)
seeders: 0
leechers: 1








Info




Budget: 3000000$

Incassi: 20966644$

Stato: Released

Cast:




Nel 1907, guardata a vista e scrupolosamente protetta da Charlotte, una solerte cugina zitella, la giovane Lucy, appartenente a facoltosa famiglia inglese, viene a visitare Firenze e prende alloggio alla pensione Bartolini, senza poter avere la promessa “camera con vista”. A cena gli Emerson, due signori inglesi padre e figlio, offrono a Lucy di poter scambiare le camere per esaudire il suo desiderio. L’incontro con il giovane George Emerson, di abitudini più libere, incontrollato e un po’ stravagante, scombina la vita piuttosto compassata imposta a Lucy dalle rigide usanze vittoriane della famiglia, e le offre un parametro di confronto nelle riservatissime vicende sentimentali che seguiranno al rientro in Inghilterra, quando, fidanzata per iniziativa dei suoi all’impeccabile e noioso Cecil Vyse, sta per spegnere nella convenzione-bene che le è imposta la sua vivace spontaneità. A Firenze, nella “camera con vista” ritornerà in viaggio di nozze. Ma con George.

Trailer


Upload on Youtube

Info File

Video
ID: 1
Format: AVC
Format/Info: Advanced Video Codec
Format profile: [email protected]
Format settings, CABAC: Yes
Format settings, ReFrames: 5 frames
Codec ID: V_MPEG4/ISO/AVC
Duration: 1h 57mn
Bit rate: 5 162 Kbps
Width: 1 200 pixels
Height: 720 pixels
Display aspect ratio: 1.667
Frame rate mode: Constant
Frame rate: 23.976 fps
Color space: YUV
Chroma subsampling: 4:2:0
Bit depth: 8 bits
Scan type: Progressive
Bits/(Pixel*Frame): 0.249
Stream size: 4.14 GiB (91%)
Title: Camera con vista (James Ivory, 1985)
Writing library: x264 core 148 r2597 e86f3a1
Encoding settings: cabac=1 / ref=5 / deblock=1:0:0 / analyse=0x3:0x133 / me=umh / subme=7 / psy=1 / psy_rd=1.00:0.00 /
mixed_ref=1 / me_range=16 / chroma_me=1 / trellis=1 / 8x8dct=1 / cqm=0 / deadzone=21,11 / fast_pskip=0 /
chroma_qp_offset=-2 / threads=18 / lookahead_threads=3 / sliced_threads=0 / nr=0 / decimate=1 / interlaced=0 /
bluray_compat=0 / constrained_intra=0 / bframes=3 / b_pyramid=2 / b_adapt=1 / b_bias=0 / direct=1 / weightb=1 /
open_gop=0 / weightp=2 / keyint=250 / keyint_min=23 / scenecut=40 / intra_refresh=0 / rc_lookahead=40 / rc=2pass /
mbtree=1 / bitrate=5162 / ratetol=1.0 / qcomp=0.60 / qpmin=0 / qpmax=69 / qpstep=4 / cplxblur=20.0 / qblur=0.5 /
ip_ratio=1.40 / aq=1:1.00
Language: English
Default: Yes
Forced: No

Audio #1
ID: 2
Format: AC-3
Format/Info: Audio Coding 3
Mode extension: CM (complete main)
Format settings, Endianness: Big
Codec ID: A_AC3
Duration: 1h 57mn
Bit rate mode: Constant
Bit rate: 192 Kbps
Channel count: 2 channels
Channel positions: Front: L R
Sampling rate: 48.0 KHz
Bit depth: 16 bits
Compression mode: Lossy
Stream size: 161 MiB (3%)
Title: Italiano AC3 2.0 192Kbps
Language: Italian
Default: Yes
Forced: Yes

Immagini

Camera con vista (1985), [BDmux]
Camera con vista (1985), [BDmux]
Camera con vista (1985), [BDmux]
Camera con vista (1985), [BDmux]
Camera con vista (1985), [BDmux]
Camera con vista (1985), [BDmux]
Camera con vista (1985), [BDmux]

Trackers

http://tracker.publicbt.com:80/
http://tracker.istole.it:80/
http://tracker.tntvillage.scambioetico.org:2710/scrape
http://open.demonii.com:1337/scrape
http://tracker.coppersurfer.tk:6969/scrape
http://tracker.openbittorrent.com/scrape