loading...
loading...






Info

Cast Away


7.7
IMDB: 7.7/10 394,236 votes

Durata: 143 min

Released:

Anno: 22 Dec 2000

Direttore:

Premi: Nominated for 2 Oscars. Another 15 wins & 33 nominations.

Budget: 90000000$

Incassi: 429632142$

Stato: Released

Paese: USA

Cast:




Tom Hanks interpreta il protagonista Chuck Noland, ingegnere della Federal Express la cui vita personale e professionale è scandita dall’orologio, dai ritmi frenetici e dai continui spostamenti, spesso senza preavviso, che lo allontanano dalla sua fidanzata Kelly. La maniacale organizzazione dell’esistenza di Chuck s’interrompe di colpo quando si ritrova su un’isola deserta, tagliato fuori dal mondo, nelle condizioni ambientali più desolate e desolanti che si possano immaginare. Privato di ogni contatto umano e delle comodità della vita quotidiana, Chuck deve procurarsi le cose più elementari per sopravvivere: acqua, cibo e riparo. La resistenza fisica di Chuck, esperto problem-solver nel mondo civilizzato, viene messa a dura prova. Ma il vero viaggio comincia quando la sua resistenza psicologica all’isolamento comincia a vacillare…

Trailer


Upload on Youtube

Info File

Video
ID : 1
Format : AVC
Format/Info : Advanced Video Codec
Format profile : [email protected]
Format settings, CABAC : Yes
Format settings, ReFrames : 4 frames
Codec ID : V_MPEG4/ISO/AVC
Duration : 2h 23mn
Bit rate : 1 349 Kbps
Width : 720 pixels
Height : 400 pixels
Display aspect ratio : 16:9
Frame rate mode : Constant
Frame rate : 23.976 fps
Color space : YUV
Chroma subsampling : 4:2:0
Bit depth : 8 bits
Scan type : Progressive
Bits/(Pixel*Frame) : 0.195
Stream size : 1.34 GiB (62%)
Writing library : x264 core 148 r2597 e86f3a1
Encoding settings : cabac=1 / ref=3 / deblock=1:-1:-1 / analyse=0x3:0x113 / me=hex / subme=7 / psy=1 / psy_rd=1.00:0.15 / mixed_ref=1 / me_range=16 / chroma_me=1 / trellis=1 / 8x8dct=1 / cqm=0 / deadzone=21,11 / fast_pskip=1 / chroma_qp_offset=-3 / threads=6 / lookahead_threads=1 / sliced_threads=0 / nr=0 / decimate=1 / interlaced=0 / bluray_compat=0 / constrained_intra=0 / bframes=3 / b_pyramid=2 / b_adapt=1 / b_bias=0 / direct=1 / weightb=1 / open_gop=0 / weightp=2 / keyint=240 / keyint_min=23 / scenecut=40 / intra_refresh=0 / rc_lookahead=40 / rc=2pass / mbtree=1 / bitrate=1349 / ratetol=1.0 / qcomp=0.60 / qpmin=0 / qpmax=69 / qpstep=4 / cplxblur=20.0 / qblur=0.5 / vbv_maxrate=62500 / vbv_bufsize=78125 / nal_hrd=none / filler=0 / ip_ratio=1.40 / aq=1:1.00
Default : Yes
Forced : No

Audio #1
ID : 2
Format : AC-3
Format/Info : Audio Coding 3
Mode extension : CM (complete main)
Format settings, Endianness : Big
Codec ID : A_AC3
Duration : 2h 23mn
Bit rate mode : Constant
Bit rate : 384 Kbps
Channel(s) : 6 channels
Channel positions : Front: L C R, Side: L R, LFE
Sampling rate : 48.0 KHz
Bit depth : 16 bits
Compression mode : Lossy
Stream size : 395 MiB (18%)
Title : Ac3 5.1
Language : Italian
Default : Yes
Forced : No

Immagini

Cast Away (2000), [H264 – Ita Eng Ac3 5.1 – MultiSub]
Cast Away (2000), [H264 – Ita Eng Ac3 5.1 – MultiSub]
Cast Away (2000), [H264 – Ita Eng Ac3 5.1 – MultiSub]
Cast Away (2000), [H264 – Ita Eng Ac3 5.1 – MultiSub]
Cast Away (2000), [H264 – Ita Eng Ac3 5.1 – MultiSub]
Cast Away (2000), [H264 – Ita Eng Ac3 5.1 – MultiSub]
Cast Away (2000), [H264 – Ita Eng Ac3 5.1 – MultiSub]
Cast Away (2000), [H264 – Ita Eng Ac3 5.1 – MultiSub]
Cast Away (2000), [H264 – Ita Eng Ac3 5.1 – MultiSub]
Cast Away (2000), [H264 – Ita Eng Ac3 5.1 – MultiSub]

Trackers

http://tracker.publicbt.com:80/
http://tracker.istole.it:80/
http://tracker.tntvillage.scambioetico.org:2710/scrape
http://open.demonii.com:1337/scrape
http://tracker.coppersurfer.tk:6969/scrape
http://tracker.openbittorrent.com/scrape