Chorus Line (1985), [BDmux]  (4.66 Gb)

Likes(0)Dislikes(0)
seeders: 7
leechers: 0








Info




Incassi: 14202899$

Stato: Released

Cast:




Davanti ad un teatro di Broadway si fa la coda, ma non per lo spettacolo: c’è un regista che valuta le capacità di centinaia di danzatori aspiranti ad un posto di fila nei balletti del prossimo “musical”. Il regista (Zach), seminascosto nel buio della platea, sottopone tutti ad una massacrante selezione, dalla quale alla fine escono fuori sedici ballerini. Ma i prescelti saranno otto soltanto, che dovranno accedere alla finalissima ancora con ansie e fatiche incredibili. Zach esige ora che ciascuno parli di sè, della propria vita ed esperienze, motivando il “perché” di una scelta professionale. Intanto è arrivata in teatro Cassie, una ballerina di qualche anno fa (molto brava e innamorata di Zach), che aveva lasciato lui ed il proprio posto di lavoro per andarsene ad Hollywood. Ora ha bisogno di danzare per sbarcare il lunario: essa deve vincere la indifferenza ed il rancore di Zach, che a lei era intimamente legato, ed implorare di ricomiciare umilmente in gruppo con gli altri. Alla fine Zach sceglierà gli otto fortunati – esausti, ma raggianti – e tra loro sarà anche Cassie, fedele alla sua professionalità ed al suo amore.

Trailer


Upload on Youtube

Info File

Video
ID : 1
Format : AVC
Format/Info : Advanced Video Codec
Format profile : [email protected]
Format settings, CABAC : Yes
Format settings, ReFrames : 5 frames
Codec ID : V_MPEG4/ISO/AVC
Duration : 1h 57mn
Bit rate : 5 000 Kbps
Width : 1 920 pixels
Height : 816 pixels
Display aspect ratio : 2.35:1
Frame rate mode : Constant
Frame rate : 23.976 fps
Color space : YUV
Chroma subsampling : 4:2:0
Bit depth : 8 bits
Scan type : Progressive
Bits/(Pixel*Frame) : 0.133
Stream size : 4.02 GiB (86%)
Writing library : x264 core 142 r2479 dd79a61
Encoding settings : cabac=1 / ref=5 / deblock=1:0:0 / analyse=0x3:0x113 / me=umh / subme=8 / psy=1 / psy_rd=1.00:0.00 / mixed_ref=1 / me_range=16 / chroma_me=1 / trellis=1 / 8x8dct=1 / cqm=0 / deadzone=21,11 / fast_pskip=1 / chroma_qp_offset=-2 / threads=12 / lookahead_threads=2 / sliced_threads=0 / nr=0 / decimate=1 / interlaced=0 / bluray_compat=0 / constrained_intra=0 / bframes=3 / b_pyramid=2 / b_adapt=2 / b_bias=0 / direct=3 / weightb=1 / open_gop=0 / weightp=2 / keyint=240 / keyint_min=24 / scenecut=40 / intra_refresh=0 / rc_lookahead=50 / rc=2pass / mbtree=1 / bitrate=5000 / ratetol=1.0 / qcomp=0.60 / qpmin=0 / qpmax=69 / qpstep=4 / cplxblur=20.0 / qblur=0.5 / vbv_maxrate=62500 / vbv_bufsize=78125 / nal_hrd=none / filler=0 / ip_ratio=1.40 / aq=1:1.00
Language : Italian
Default : Yes
Forced : No
Color range : Limited
Color primaries : BT.709
Transfer characteristics : BT.709
Matrix coefficients : BT.709
DURATION : 01:57:38.010000000
NUMBER_OF_FRAMES : 169223
NUMBER_OF_BYTES : 4411469062
_STATISTICS_WRITING_APP : mkvmerge v8.3.0 ('Over the Horizon') 64bit
_STATISTICS_WRITING_DATE_UT : 2015-09-01 00:04:02
_STATISTICS_TAGS : BPS DURATION NUMBER_OF_FRAMES NUMBER_OF_BYTES

Audio #1
ID : 2
Format : AC-3
Format/Info : Audio Coding 3
Mode extension : CM (complete main)
Format settings, Endianness : Big
Codec ID : A_AC3
Duration : 1h 57mn
Bit rate mode : Constant
Bit rate : 448 Kbps
Channel(s) : 6 channels
Channel positions : Front: L C R, Side: L R, LFE
Sampling rate : 48.0 KHz
Compression mode : Lossy
Stream size : 377 MiB (8%)
Language : Italian
Default : Yes
Forced : No

Immagini

Chorus Line (1985), [BDmux]
Chorus Line (1985), [BDmux]
Chorus Line (1985), [BDmux]
Chorus Line (1985), [BDmux]

Trackers

http://tracker.istole.it:80/
http://tracker.publicbt.com:80/
http://tracker.tntvillage.scambioetico.org:2710/scrape
http://open.demonii.com:1337/scrape
http://tracker.coppersurfer.tk:6969/scrape
http://tracker.openbittorrent.com/scrape