loading...
loading...






Info

Chrysalis


5.5
IMDB: 5.5/10 2,495 votes

Durata: 94 min

Released:

Anno: 31 Oct 2007

Direttore:

Premi: N/A

Budget: 12$

Stato: Released

Paese: France

Cast:




Nella Parigi del 2025 il tenente della Polizia Europea David Hoffmann
(Albert Dupontel) perde la compagna e collega Sarah (Smadi Wolfman) in uno scontro col
temibile Nicolov (Alain Figlarz). Profondamente traumatizzato dall’evento ma di nuovo in forze, il
tenente viene messo sulle tracce dell’assassino dalla sua dirigente Miller (Claude Perron), che gli
affianca nell’inchiesta la giovane Marie Becker (Marie Gullard), nipote del capo dell’Intelligence
Charles Becker (Patrick Bauchau). L’indagine conduce ad una clinica ipertecnologica nella quale, in
segreto, vengono effettuati interventi sulla memoria grazie a una sofisticata apparecchiatura
denominata Chrysalis: un macchinario che permette di rimuovere i ricordi episodici del soggetto
trattato bombardando l’ippocampo senza tuttavia alterarne le capacità di immagazzinamento.
Ipotetici scenari di destabilizzante manipolazione umana si spalancano dietro questa sconvolgente
scoperta.

Trailer


Upload on Youtube

Info File

Complete name : C:\Users\Sol\Desktop\FILM Sottotitolati\Chrysalis.mkv
Format : Matroska
File size : 1.47 GiB
Duration : 1h 33mn
Overall bit rate : 2 232 Kbps
Movie name : Chrysalis (2007)
Encoded date : UTC 2011-05-30 17:18:14
Writing application : mkvmerge v4.6.0 ('Still Crazy After All These Years') built on Mar 10 2011 02:50:32
Writing library : libebml v1.2.0 + libmatroska v1.1.0
Cover : Yes / Yes / Yes / Yes / Yes / Yes / Yes

Video

ID : 1
Format : AVC
Format/Info : Advanced Video Codec
Format profile : [email protected]
Format settings, CABAC : Yes
Format settings, ReFrames : 1 frame
Format settings, GOP : M=1, N=15
Muxing mode : Header stripping
Codec ID : V_MPEG4/ISO/AVC
Duration : 1h 33mn
Bit rate : 1 868 Kbps
Width : 1 280 pixels
Height : 544 pixels
Display aspect ratio : 2.35:1
Frame rate : 23.976 fps
Color space : YUV
Chroma subsampling : 4:2:0
Bit depth : 8 bits
Scan type : Progressive
Bits/(Pixel*Frame) : 0.112
Stream size : 1.23 GiB (84%)

Audio

ID : 2
Format : AC-3
Format/Info : Audio Coding 3
Mode extension : CM (complete main)
Muxing mode : Header stripping
Codec ID : A_AC3
Duration : 1h 33mn
Bit rate mode : Constant
Bit rate : 320 Kbps
Channel(s) : 2 channels
Channel positions : Front: L R
Sampling rate : 48.0 KHz
Bit depth : 16 bits
Compression mode : Lossy
Stream size : 215 MiB (14%)
Language : French

Text #1

ID : 3
Format : ASS
Codec ID : S_TEXT/ASS
Codec ID/Info : Advanced Sub Station Alpha
Compression mode : Lossless
Language : English

Text #2

ID : 4
Format : UTF-8
Codec ID : S_TEXT/UTF8
Codec ID/Info : UTF-8 Plain Text
Language : Italian

Text #3

ID : 5
Format : UTF-8
Codec ID : S_TEXT/UTF8
Codec ID/Info : UTF-8 Plain Text
Language : Portuguese

Text #4

ID : 6
Format : UTF-8
Codec ID : S_TEXT/UTF8
Codec ID/Info : UTF-8 Plain Text
Language : Spanish

Immagini

Chrysalis (2007), [BDrip 720p – H264 – Fra Ac3 – MultiSub]
Chrysalis (2007), [BDrip 720p – H264 – Fra Ac3 – MultiSub]
Chrysalis (2007), [BDrip 720p – H264 – Fra Ac3 – MultiSub]

Trackers

http://tracker.istole.it:80/
http://tracker.publicbt.com:80/
http://tracker.tntvillage.scambioetico.org:2710/scrape
http://open.demonii.com:1337/scrape
http://tracker.coppersurfer.tk:6969/scrape
http://tracker.openbittorrent.com/scrape