Info

Dark Shadows


6.2
IMDB: 6.2/10 204,002 votes

Durata: 113 min

Released:

Anno: 11 May 2012

Direttore:

Premi: 2 wins & 12 nominations.

Budget: 150000000$

Incassi: 245527149$

Stato: Released

Paese: USA, Australia

Tagline: Tim Burton e Johnny Depp ancora assieme nel segno dei vampiri

Cast:




La storia ha inizio nel 1760, quando una famiglia aristocratica inglese, i coniugi Collins e il loro unigenito Barnabas (Johnny Depp) partono per gli Stati Uniti d’America. Raggiunto lo stato del Maine edificano una magione che chiamano Collinwood e fondano un’azienda ittica, che si espande dando origine ad una cittadina, Collinsport.

Barnabas cresce e, seppur educato secondo sani principi, diviene un ragazzo spavaldo e un vero playboy. Quando però seduce ed abbandona Angelique Bouchard (Eva Green), una domestica in servizio presso la sua magione, quest’ultima inizia per vendetta a distruggergli la vita attraverso l’uso della magia nera. Angelique, infatti, causerà una sequela di disgrazie: la morte dei genitori e il suicidio di Josette (Bella Heathcote), fidanzata di Barnabas, che si lascia inspiegabilmente cadere da una scogliera. Il dolore affligge Barnabas a tal punto che si getta anch’egli, cadendo al fianco della sua esanime amata. Barnabas, inspiegabilmente incolume, riapre gli occhi, scoprendo che Angelique lo aveva punito con l’immortalità, trasformandolo in un vampiro, per poi istigare contro di lui i villici di Collinsport, che lo seppelliscono vivo in una bara…………….

 

Trailer


Upload on Youtube

Info File

Video
ID : 0
Format : MPEG-4 Visual
Format profile : Advanced [email protected]
Format settings, BVOP : No
Format settings, QPel : No
Format settings, GMC : No warppoints
Format settings, Matrix : Custom
Codec ID : XVID
Codec ID/Hint : XviD
Duration : 1h 48mn
Bit rate : 1 414 Kbps
Width : 720 pixels
Height : 400 pixels
Display aspect ratio : 16:9
Frame rate : 25.000 fps
Color space : YUV
Chroma subsampling : 4:2:0
Bit depth : 8 bits
Scan type : Progressive
Bits/(Pixel*Frame) : 0.196
Stream size : 1.07 GiB (65%)
Writing library : XviD 1.2.1 (UTC 2008-12-04)

Audio #1
ID : 1
Format : AC-3
Format/Info : Audio Coding 3
Mode extension : CM (complete main)
Codec ID : 2000
Duration : 1h 48mn
Bit rate mode : Constant
Bit rate : 384 Kbps
Channel(s) : 6 channels
Channel positions : Front: L C R, Side: L R, LFE
Sampling rate : 48.0 KHz
Bit depth : 16 bits
Stream size : 298 MiB (18%)
Alignment : Aligned on interleaves
Interleave, duration : 96 ms (2.40 video frames)
Interleave, preload duration : 96 ms
Language : Italian

Immagini

Dark Shadows (2012) + Bonus 6 minuti, [XviD – Ita Eng Ac3 5.1 – Sub Ita Eng]
Dark Shadows (2012) + Bonus 6 minuti, [XviD – Ita Eng Ac3 5.1 – Sub Ita Eng]
Dark Shadows (2012) + Bonus 6 minuti, [XviD – Ita Eng Ac3 5.1 – Sub Ita Eng]
Dark Shadows (2012) + Bonus 6 minuti, [XviD – Ita Eng Ac3 5.1 – Sub Ita Eng]
Dark Shadows (2012) + Bonus 6 minuti, [XviD – Ita Eng Ac3 5.1 – Sub Ita Eng]
Dark Shadows (2012) + Bonus 6 minuti, [XviD – Ita Eng Ac3 5.1 – Sub Ita Eng]
Dark Shadows (2012) + Bonus 6 minuti, [XviD – Ita Eng Ac3 5.1 – Sub Ita Eng]
Dark Shadows (2012) + Bonus 6 minuti, [XviD – Ita Eng Ac3 5.1 – Sub Ita Eng]
Dark Shadows (2012) + Bonus 6 minuti, [XviD – Ita Eng Ac3 5.1 – Sub Ita Eng]

Trackers

http://tracker.istole.it:80/
http://tracker.publicbt.com:80/
http://tracker.tntvillage.scambioetico.org:2710/scrape
http://open.demonii.com:1337/scrape
http://tracker.coppersurfer.tk:6969/scrape
http://tracker.openbittorrent.com/scrape