loading...
loading...






Info

Dead Silence


6.2
IMDB: 6.2/10 67,471 votes

Durata: 89 min

Released:

Anno: 16 Mar 2007

Direttore:

Premi: N/A

Budget: 20000000$

Incassi: 22217407$

Stato: Released

Paese: USA

Tagline: Se urli, muori.

Cast:




I coniugi Jamie e Lisa Ashen ricevono un misterioso pupazzo da ventriloquo, dal nome “Billy”, in un pacco non marcato. Jamie e Lisa si chiedono chi possa averglielo mandato e Lisa si ricorda di una filastrocca inquietante sui pupazzi che conosceva quando era più giovane, che parlava della ventriloqua Mary Shaw. Jamie la ignora e esce di casa per comprare la cena; quando torna a casa sente la voce della moglie chiamarlo dalla camera da letto dove trova il corpo…………………………

Trailer


Upload on Youtube

Info File

Complete name : Dead Silence (2007).ita.eng.sub.ita.eng.MIRcrew\Dead Silence (2007).ita.eng.sub.ita.eng.MIRcrew.avi
Format : AVI
Format/Info : Audio Video Interleave
File size : 1.51 GiB
Duration : 1h 31mn
Overall bit rate : 2 358 Kbps
Movie name : mircrew by robbyrs
Writing application : VirtualDubMod 1.5.10.2 (build 2540/release)
Writing library : VirtualDubMod build 2540/release

Video
ID : 0
Format : MPEG-4 Visual
Format profile : [email protected]
Format settings, BVOP : No
Format settings, QPel : No
Format settings, GMC : No warppoints
Format settings, Matrix : Default (H.263)
Codec ID : XVID
Codec ID/Hint : XviD
Duration : 1h 31mn
Bit rate : 1 447 Kbps
Width : 688 pixels
Height : 278 pixels
Display aspect ratio : 2.465
Frame rate : 25.000 fps
Color space : YUV
Chroma subsampling : 4:2:0
Bit depth : 8 bits
Scan type : Progressive
Compression mode : Lossy
Bits/(Pixel*Frame) : 0.303
Stream size : 947 MiB (61%)
Writing library : XviD 64

Audio #1
ID : 1
Format : AC-3
Format/Info : Audio Coding 3
Mode extension : CM (complete main)
Codec ID : 2000
Duration : 1h 31mn
Bit rate mode : Constant
Bit rate : 448 Kbps
Channel(s) : 6 channels
Channel positions : Front: L C R, Side: L R, LFE
Sampling rate : 48.0 KHz
Bit depth : 16 bits
Compression mode : Lossy
Stream size : 293 MiB (19%)
Alignment : Split accross interleaves
Interleave, duration : 40 ms (1.00 video frame)
Interleave, preload duration : 500 ms

Audio #2
ID : 2
Format : AC-3
Format/Info : Audio Coding 3
Mode extension : CM (complete main)
Codec ID : 2000
Duration : 1h 31mn
Bit rate mode : Constant
Bit rate : 448 Kbps
Channel(s) : 6 channels
Channel positions : Front: L C R, Side: L R, LFE
Sampling rate : 48.0 KHz
Bit depth : 16 bits
Compression mode : Lossy
Stream size : 293 MiB (19%)
Alignment : Split accross interleaves
Interleave, duration : 40 ms (1.00 video frame)
Interleave, preload duration : 500 ms

Immagini

Dead Silence (2007), [XviD – Ita Eng Ac3 5.1 – Sub Ita Eng]
Dead Silence (2007), [XviD – Ita Eng Ac3 5.1 – Sub Ita Eng]
Dead Silence (2007), [XviD – Ita Eng Ac3 5.1 – Sub Ita Eng]
Dead Silence (2007), [XviD – Ita Eng Ac3 5.1 – Sub Ita Eng]
Dead Silence (2007), [XviD – Ita Eng Ac3 5.1 – Sub Ita Eng]
Dead Silence (2007), [XviD – Ita Eng Ac3 5.1 – Sub Ita Eng]
Dead Silence (2007), [XviD – Ita Eng Ac3 5.1 – Sub Ita Eng]
Dead Silence (2007), [XviD – Ita Eng Ac3 5.1 – Sub Ita Eng]
Dead Silence (2007), [XviD – Ita Eng Ac3 5.1 – Sub Ita Eng]
Dead Silence (2007), [XviD – Ita Eng Ac3 5.1 – Sub Ita Eng]

Trackers

http://tracker.istole.it:80/
http://tracker.tntvillage.scambioetico.org:2710/scrape
http://tracker.publicbt.com:80/
http://open.demonii.com:1337/scrape
http://tracker.coppersurfer.tk:6969/scrape
http://tracker.openbittorrent.com/scrape

Torrent correlati

Torrent Name Dimm. Creato Seed Leech
comment icon
4.36 Gb 3 mesi fa 2 1
comment icon
1.61 Gb 2 mesi fa 3 0
comment icon
913.77 Mb 3 mesi fa 1 2
comment icon
1.37 Gb 3 giorni fa 0 0
comment icon
7.95 Gb 3 mesi fa 4 1