Demoni – Demons (1985) Lamberto Bava, [DivX]  (1.34 Gb)

Likes(0)Dislikes(0)
seeders: 0
leechers: 0








Info

Demons


6.7
IMDB: 6.7/10 15,296 votes

Durata: 88 min

Released:

Anno: 30 May 1986

Direttore:

Premi: 1 nomination.

Budget: 1800000$

Stato: Released

Paese: Italy

Cast:




Cheryl (Natasha Hovey) si ritrova da sola dopo essere scesa dalla metropolitana; sente strani rumori e poi vede un uomo con la faccia per metà coperta da una maschera che la impaurisce. Fugge, l’individuo la insegue e la ferma… Ma solo per darle un biglietto per la prima di un film al Metropol, un nuovo cinema. Cheryl, ripresasi dallo spavento, chiede all’uomo un secondo biglietto per una sua amica, Kathy (Paola Cozzo). Le due si recano al cinema, evitando così una noiosa lezione; fuori dal cinema è esposto un “monumento” di ferro raffigurante un cavaliere a cavallo di una vera moto con in mano una maschera d’argento con le fattezze di un demone. In sala il film che è proiettato è un horror in cui un gruppo di ragazzi vìola la tomba di Nostradamus e ……………..

Trailer


Upload on Youtube

Info File

Video
ID : 0
Format : MPEG-4 Visual
Format profile : [email protected]
Format settings, BVOP : No
Format settings, QPel : No
Format settings, GMC : No warppoints
Format settings, Matrix : Default (H.263)
Codec ID : DX50
Codec ID/Hint : DivX 5
Duration : 1h 28mn
Bit rate : 1 763 Kbps
Width : 720 pixels
Height : 436 pixels
Display aspect ratio : 1.651
Frame rate : 23.976 fps
Color space : YUV
Chroma subsampling : 4:2:0
Bit depth : 8 bits
Scan type : Interlaced
Scan order : Top Field First
Bits/(Pixel*Frame) : 0.234
Stream size : 1.09 GiB (82%)
Writing library : Lavc52.30.1

Audio #1
ID : 1
Format : AC-3
Format/Info : Audio Coding 3
Mode extension : CM (complete main)
Codec ID : 2000
Duration : 1h 28mn
Bit rate mode : Constant
Bit rate : 192 Kbps
Channel(s) : 2 channels
Channel positions : Front: L R
Sampling rate : 48.0 KHz
Bit depth : 16 bits
Stream size : 122 MiB (9%)
Alignment : Split accross interleaves
Interleave, duration : 42 ms (1.00 video frame)
Interleave, preload duration : 500 ms

Immagini

Demoni – Demons (1985) Lamberto Bava, [DivX]
Demoni – Demons (1985) Lamberto Bava, [DivX]
Demoni – Demons (1985) Lamberto Bava, [DivX]
Demoni – Demons (1985) Lamberto Bava, [DivX]
Demoni – Demons (1985) Lamberto Bava, [DivX]
Demoni – Demons (1985) Lamberto Bava, [DivX]

Trackers

http://tracker.istole.it:80/
http://tracker.publicbt.com:80/
http://tracker.tntvillage.scambioetico.org:2710/scrape
http://open.demonii.com:1337/scrape
http://tracker.coppersurfer.tk:6969/scrape
http://tracker.openbittorrent.com/scrape