Info

user posted image

.: Scheda della serie :.

Titolo: Doctor Who Classic S02
Genere: Fantascienza
Durata episodio: ~ 25 Minuti
Anno di produzione: 1964/65
Nazione: UK

Cast:
William Hartnell (Il dottore)
Carole Ann Ford (Susan Foreman)
William Russell (Ian Chesterton)
Jacqueline Hill (Barbara Wright)
Maureen O’Brien (Vicki)

.: TRAMA :.

Doctor Who è una serie televisiva britannica di fantascienza prodotta dalla BBC a partire dal 1963. Ha per protagonista un Signore del Tempo (Time Lord), cioè un alieno viaggiatore del tempo, che si fa chiamare semplicemente Il Dottore. Il Dottore esplora l’universo a bordo del TARDIS, una macchina senziente capace di viaggiare nello spazio e nel tempo attraverso il cosiddetto vortice temporale (time vortex). L’aspetto esterno del TARDIS è quello di una cabina blu della polizia inglese, comunemente visibile in Gran Bretagna negli anni sessanta, quando la serie fu trasmessa per la prima volta. Il Dottore è quasi sempre accompagnato da dei compagni di viaggio terrestri, insieme ai quali affronta nemici, salva intere civiltà e aiuta chi è in difficoltà.
Nel 1989 il programma venne chiuso e nel 1996 ci fu un tentativo, infruttuoso, di far ripartire la serie tramite un episodio pilota sotto forma di film per la televisione. Nel 2005, lo sceneggiatore Russell T Davies ripropose la serie con successo, producendola a Cardiff tramite la BBC Wales.
La serie, con i suoi più di 50 anni di programmazione (continuativa dal 1963 al 1989 e ripresa nel 2005) e più di 800 episodi (realizzati a colori a partire dal 1970) detiene il record di serie televisiva di fantascienza più longeva al mondo e di maggior successo in termini di ascolti televisivi. Per questi motivi è citata nel Guinness World Records. Il programma è considerato una parte significativa della cultura popolare del Regno Unito ed è diventata una serie di culto.

(fonte Wikipedia)

user posted image

L’INTEGRITA’ MATERIALE E FISICA DELLA SERIE CLASSICA
All’incirca tra il 1967 ed il 1978 gran parte del materiale più vecchio della BBC memorizzato su nastri magnetici o contenuto in videoteche andò distrutto o fu semplicemente cancellato per un riutilizzo. Andarono così persi molti vecchi episodi di Doctor Who, riguardanti soprattutto i primi due dottori: William Hartnell e Patrick Troughton.
In tutto, 106 dei 253 episodi prodotti durante i primi sei anni del programma non sono più presenti negli archivi della BBC.
Per l’operazione di recupero la BBC ha utilizzato le prime registrazioni a colori effettuate da fan e spettatori da tutto il mondo, come pure i brani filmati tramite videocamere a 8 mm oppure andati in onda all’interno di altre trasmissioni. Di tutti gli episodi perduti sono state recuperate le versioni solo audio, grazie alle registrazioni eseguite all’epoca da vari telespettatori.
Oltre a ciò, esistono fotografie scattate durante le riprese dal fotografo John Cura, impiegato dalle varie produzioni della rete per documentare molti dei loro programmi durante gli anni cinquanta e sessanta. Queste fotografie sono state utilizzate in ricostruzioni delle puntate prodotte dai fan e tollerate dalla BBC, poiché non messe in commercio per profitto e distribuite con vhs a bassa risoluzione.

Info File

General
Unique ID : 68990308109252894339957890097388413857 (0x33E70CCE8131EBF39004C7784CDF63A1)
Complete name : Doctor.Who.Classic.S02e04.The.Dalek.Invasion.of.Earth(1)-World's.End.mkv
Format : Matroska
Format version : Version 4 / Version 2
File size : 452 MiB
Duration : 24mn 44s
Overall bit rate : 2 555 Kbps
Encoded date : UTC 2017-04-18 12:01:58
Writing application : mkvmerge v6.7.0 ('Back to the Ground') 64bit built on Jan 9 2014 18:03:17
Writing library : libebml v1.3.0 + libmatroska v1.4.1

Video
ID : 1
Format : AVC
Format/Info : Advanced Video Codec
Format profile : [email protected]
Format settings, CABAC : Yes
Format settings, ReFrames : 4 frames
Codec ID : V_MPEG4/ISO/AVC
Duration : 24mn 44s
Bit rate : 2 184 Kbps
Width : 700 pixels
Height : 574 pixels
Display aspect ratio : 4:3
Original display aspect ratio : 4:3
Frame rate mode : Constant
Frame rate : 25.000 fps
Color space : YUV
Chroma subsampling : 4:2:0
Bit depth : 8 bits
Scan type : Progressive
Bits/(Pixel*Frame) : 0.217
Stream size : 386 MiB (85%)
Writing library : x264 core 142 r2389 956c8d8
Encoding settings : cabac=1 / ref=1 / deblock=1:0:0 / analyse=0x1:0x111 / me=hex / subme=2 / psy=1 / psy_rd=1,00:0,00 / mixed_ref=0 / me_range=16 / chroma_me=1 / trellis=0 / 8x8dct=0 / cqm=0 / deadzone=21,11 / fast_pskip=1 / chroma_qp_offset=0 / threads=3 / lookahead_threads=1 / sliced_threads=0 / nr=0 / decimate=1 / interlaced=0 / bluray_compat=0 / constrained_intra=0 / bframes=3 / b_pyramid=2 / b_adapt=1 / b_bias=0 / direct=1 / weightb=1 / open_gop=0 / weightp=1 / keyint=250 / keyint_min=25 / scenecut=40 / intra_refresh=0 / rc_lookahead=10 / rc=crf / mbtree=1 / crf=20,0 / qcomp=0,60 / qpmin=0 / qpmax=69 / qpstep=4 / vbv_maxrate=20000 / vbv_bufsize=25000 / crf_max=0,0 / nal_hrd=none / filler=0 / ip_ratio=1,40 / aq=1:1,00
Language : English
Default : Yes
Forced : No
Color primaries : BT.601 PAL
Transfer characteristics : BT.709
Matrix coefficients : BT.601

Audio #1
ID : 2
Format : AC-3
Format/Info : Audio Coding 3
Mode extension : CM (complete main)
Format settings, Endianness : Big
Codec ID : A_AC3
Duration : 24mn 44s
Bit rate mode : Constant
Bit rate : 160 Kbps
Channel(s) : 2 channels
Channel positions : Front: L R
Sampling rate : 48.0 KHz
Bit depth : 16 bits
Compression mode : Lossy
Stream size : 28.3 MiB (6%)
Language : Italian
Default : Yes
Forced : No

Audio #2
ID : 3
Format : AC-3
Format/Info : Audio Coding 3
Mode extension : CM (complete main)
Format settings, Endianness : Big
Codec ID : A_AC3
Duration : 24mn 44s
Bit rate mode : Constant
Bit rate : 160 Kbps
Channel(s) : 2 channels
Channel positions : Front: L R
Sampling rate : 48.0 KHz
Bit depth : 16 bits
Compression mode : Lossy
Stream size : 28.3 MiB (6%)
Language : English
Default : No
Forced : No

Text #1
ID : 4
Format : VobSub
Muxing mode : zlib
Codec ID : S_VOBSUB
Codec ID/Info : The same subtitle format used on DVDs
Language : Italian
Default : No
Forced : No

Text #2
ID : 5
Format : VobSub
Muxing mode : zlib
Codec ID : S_VOBSUB
Codec ID/Info : The same subtitle format used on DVDs
Language : Italian
Default : No
Forced : No

Text #3
ID : 6
Format : UTF-8
Codec ID : S_TEXT/UTF8
Codec ID/Info : UTF-8 Plain Text
Language : English
Default : No
Forced : No

Trackers

http://tracker.leechers-paradise.org:6969/scrape
http://tracker.tntvillage.scambioetico.org:2710/scrape
http://tracker.tiny-vps.com:6969/scrape
http://tracker.mg64.net:2710/scrape
http://tracker.coppersurfer.tk:6969/scrape
http://IPv6.leechers-paradise.org:6969/scrape
http://tracker.internetwarriors.net:1337/scrape
http://tracker.openbittorrent.com/scrape