Doppio Taglio – Jagged Edge (1985), [XviD]  (1.57 Gb)

Likes(0)Dislikes(0)
seeders: 3
leechers: 0








Info

Jagged Edge


6.5
IMDB: 6.5/10 10,770 votes

Durata: 108 min

Released:

Anno: 04 Oct 1985

Direttore:

Premi: Nominated for 1 Oscar. Another 3 nominations.

Budget: 15000000$

Stato: Released

Paese: USA

Cast:




Una ricchissima donna e la sua cameriera sono state uccise. Jack Forrester, il marito, editore di successo con ambizioni politiche, è imputato dei due delitti. Poco tempo prima Jack aveva cercato di distruggere la carriera e la reputazione del procuratore distrettuale, il quale è ora ben lieto di fare dell’uomo l’indiziato principale. Lo difende una bella avvocatessa, all’inizio piuttosto riluttante……………………

Trailer


Upload on Youtube

Info File

Video
ID : 0
Format : MPEG-4 Visual
Format profile : Advanced [email protected]
Format settings, BVOP : No
Format settings, QPel : No
Format settings, GMC : No warppoints
Format settings, Matrix : Custom
Codec ID : XVID
Codec ID/Hint : XviD
Duration : 1h 44mn
Bit rate : 1 751 Kbps
Width : 720 pixels
Height : 400 pixels
Display aspect ratio : 16:9
Frame rate : 25.000 fps
Color space : YUV
Chroma subsampling : 4:2:0
Bit depth : 8 bits
Scan type : Progressive
Bits/(Pixel*Frame) : 0.243
Stream size : 1.28 GiB (82%)
Writing library : XviD 1.2.1 (UTC 2008-12-04)

Audio #1
ID : 1
Format : AC-3
Format/Info : Audio Coding 3
Mode extension : CM (complete main)
Codec ID : 2000
Duration : 1h 44mn
Bit rate mode : Constant
Bit rate : 192 Kbps
Channel(s) : 2 channels
Channel positions : Front: L R
Sampling rate : 48.0 KHz
Bit depth : 16 bits
Stream size : 143 MiB (9%)
Alignment : Aligned on interleaves
Interleave, duration : 96 ms (2.40 video frames)
Interleave, preload duration : 96 ms
Language : Italian

Immagini

Doppio Taglio – Jagged Edge (1985), [XviD]

Trackers

http://tracker.istole.it:80/
http://tracker.tntvillage.scambioetico.org:2710/scrape
http://open.demonii.com:1337/scrape
http://tracker.coppersurfer.tk:6969/scrape
http://tracker.openbittorrent.com/scrape
http://tracker.publicbt.com:80/