loading...
loading...






Info

user posted image

.: Scheda della serie :.

Titolo originale Two and a Half Men
Paese Stati Uniti d’America
Anno 2003-2015
Formato serie TV
Genere sitcom
Stagioni 12
Episodi 262
Durata 20 min (episodio)

.: Trama :.

La sitcom inizia dal trasloco di Alan e suo figlio Jake a casa di Charlie, fratello di Alan, in seguito alla separazione di quest’ultimo da sua moglie Judith.

Le storie narrate si incentrano sulle situazioni spesso comiche nate dalle diverse abitudini e stili di vita di Charlie, scapolo di professione, compositore musicale per jingle pubblicitari, donnaiolo di successo, viziato e dalla vita agiata, e di suo fratello Alan, separato e con figlio al seguito, di professione chiropratico, molto più tranquillo, ma maniacalmente preciso. Il loro rapporto è anche scombussolato dalle incursioni della madre dei due, Evelyn, ricca agente immobiliare e donna superficiale con la quale i due figli hanno un rapporto perennemente conflittuale e dalla governante Berta, considerata ormai come una di famiglia, ma con un fare molto rozzo e mascolino.

Gli scenari cambiano totalmente all’alba della nona stagione, in cui il primo episodio si apre con il funerale di Charlie, deceduto durante la sua luna di miele con Rose. Alan, consapevole di non poter mantenere la casa dove abitava con Charlie, decide di venderla, quando all’improvviso fa il suo ingresso in scena Walden Schmidt, futuro acquirente e protagonista che stravolge le gerarchie della casa.

Due uomini e mezzo (Two and a Half Men) è una sitcom statunitense trasmessa dal 2003 al 2015 in prima visione negli Stati Uniti da CBS e in Italia dal 3 giugno 2006 su Rai 2.
Finalmente in Italia l’ultima, conclusiva, stagione di uno dei comedy show più famosi degli ultimi anni!

Info File

(La scheda tecnica rimarrà invariata per tutta la stagione)

General
Format : MPEG-PS
File size : 318 MiB
Duration : 20mn 6s
Overall bit rate mode : Variable
Overall bit rate : 2 210 Kbps

Video
ID : 224 (0xE0)
Format : MPEG Video
Format version : Version 2
Format profile : [email protected]
Format settings, BVOP : Yes
Format settings, Matrix : Custom
Format settings, GOP : Variable
Format settings, picture st : Frame
Duration : 20mn 6s
Bit rate mode : Variable
Bit rate : 2 038 Kbps
Maximum bit rate : 15.0 Mbps
Width : 720 pixels
Height : 576 pixels
Display aspect ratio : 16:9
Frame rate : 25.000 fps
Standard : PAL
Color space : YUV
Chroma subsampling : 4:2:0
Bit depth : 8 bits
Scan type : Interlaced
Scan order : Top Field First
Compression mode : Lossy
Bits/(Pixel*Frame) : 0.197
Time code of first frame : 00:00:00:00
Time code source : Group of pictures header
GOP, Open/Closed : Open
GOP, Open/Closed of first f : Closed
Stream size : 293 MiB (92%)

Audio
ID : 192 (0xC0)
Format : MPEG Audio
Format version : Version 1
Format profile : Layer 2
Duration : 20mn 6s
Bit rate mode : Constant
Bit rate : 128 Kbps
Channel(s) : 2 channels
Sampling rate : 48.0 KHz
Compression mode : Lossy
Delay relative to video : 9ms
Stream size : 18.4 MiB (6%)

Trackers

http://tracker.publicbt.com:80/
http://tracker.tntvillage.scambioetico.org:2710/scrape
http://open.demonii.com:1337/scrape
http://tracker.coppersurfer.tk:6969/scrape
http://tracker.openbittorrent.com/scrape
http://tracker.istole.it:80/