Estate romana (2000), [XviD – Ita Mp3]  (1.39 Gb)

Likes(0)Dislikes(0)
seeders: 0
leechers: 0


loading...
loading...






Info

Roman Summer


6.0
IMDB: 6.0/10 88 votes

Durata: 90 min

Released:

Anno: 01 Nov 2000

Direttore:

Premi: N/A

Stato: Released

Paese: Italy

Cast:




Nella Roma accaldata del 1999, invasa dai cantieri per il Giubileo del 2000, si sovrappongono gli itinerari tragicomici di uno scenografo pigro senza ambizioni (Sansone) e del suo grande mappamondo, della sua assistente (Nappo) in lotta continua con la suocera megera e di una ex attrice (Or) di teatro off, che, rimpatriata dopo molti anni, è spaesata e depressa. Con piazza Vittorio, nel quartiere Esquilino, come punto di partenza, è un viaggio attraverso una Roma inedita e teatrale all’insegna di una precarietà subita, ma anche accettata con una tranquillità non priva di irrequietezza.

Trailer


Upload on Youtube

Info File

Video
ID : 0
Format : MPEG-4 Visual
Format settings, BVOP : 1
Format settings, QPel : No
Format settings, GMC : No warppoints
Format settings, Matrix : Default (H.263)
Muxing mode : Packed bitstream
Codec ID : DX50
Codec ID/Hint : DivX 5
Duration : 1h 26mn
Bit rate : 2 160 Kbps
Width : 672 pixels
Height : 384 pixels
Display aspect ratio : 16:9
Frame rate : 25.000 fps
Color space : YUV
Chroma subsampling : 4:2:0
Bit depth : 8 bits
Scan type : Progressive
Compression mode : Lossy
Bits/(Pixel*Frame) : 0.335
Stream size : 1.31 GiB (94%)
Writing library : DivX 6.8.0 (UTC 2007-12-04)

Audio
ID : 1
Format : MPEG Audio
Format version : Version 1
Format profile : Layer 3
Mode : Joint stereo
Mode extension : MS Stereo
Codec ID : 55
Codec ID/Hint : MP3
Duration : 1h 26mn
Bit rate mode : Constant
Bit rate : 128 Kbps
Channel(s) : 2 channels
Sampling rate : 48.0 KHz
Compression mode : Lossy
Stream size : 79.2 MiB (6%)
Alignment : Aligned on interleaves
Interleave, duration : 80 ms (2.00 video frames)
Interleave, preload duration : 504 ms
Language : Italiano

Trackers

http://tracker.istole.it:80/
http://tracker.publicbt.com:80/
http://open.demonii.com:1337/scrape
http://tracker.tntvillage.scambioetico.org:2710/scrape
http://tracker.coppersurfer.tk:6969/scrape
http://tracker.openbittorrent.com/scrape

Torrent correlati

Torrent Name Dimm. Creato Seed Leech
comment icon
1.67 Gb 11 ore fa 0 0
comment icon
1.37 Gb 3 settimane fa 1 2
comment icon
11.43 Gb 2 mesi fa 10 6
comment icon
691 Mb 2 mesi fa 0 0
comment icon
705.27 Mb 3 mesi fa 1 0