loading...
loading...






Info

The Whole Nine Yards


6.7
IMDB: 6.7/10 90,713 votes

Durata: 98 min

Released:

Anno: 18 Feb 2000

Direttore:

Premi: 5 nominations.

Budget: 41300000$

Incassi: 106371651$

Stato: Released

Paese: USA

Cast:




Nicholas “Oz” Oseransky (Matthew Perry) è un dentista che vive in Canada con la moglie che odia (Rosanna Arquette). Un giorno la sua vita cambia del tutto quando trasloca accanto a lui un tipo familiare (Bruce Willis) che si rivela poi essere un noto killer della famiglia dei Gogolak: Jimmy “Tulipano” Tudeski. I due diventano amici, finché la moglie di Oz decide di ricattare quest’ultimo ordinandogli di denunciare Jimmy a Janni Gogolak (Kevin Pollak) per farlo uccidere. Oz va a Chicago non con l’idea di “vendere” Jimmy ma solamente di passare un week-end lontano dalla moglie. Sfortunatamente viene rintracciato in albergo da un sicario dei Gogolak Franklin “Frankie Figs” Figueroa (Michael Clarke Duncan) che lo porta da Janni. Lì oltre a conoscere il boss conosce anche Cynthia (Natasha Henstridge). Dopo aver passato una notte in albergo con Cynthia, Oz torna a Montreal accompagnato da Frankie Figs. Quando i due si incontrano in albergo con Jimmy si rivelano essere in combutta per uccidere Janni. Nel frattempo si era unita al gruppetto anche la segretaria di Oz Jill (Amanda Peet) che in realtà era una killer anche lei,ingaggiata tempo prima dalla moglie di Oz per farlo fuori. Quando Janni con il resto della banda giunge a Montreal con Cynthia, i tre killer decidono di mettere in atto il loro piano. Infatti appena Janni e i sicari entrano in casa di Jimmy vengono tutti uccisi insieme ad un altro killer, ingaggiato dalla moglie di Oz sempre con lo stesso obiettivo,questo killer in realtà si scopre essere un poliziotto sotto copertura. Essendo Oz un dentista decidono di servirsi del suo studio per prendere i denti necessari all’identificazone del calco dentale di Jimmy e metterli nella bocca del killer di troppo, dopodiché bruciano la macchina di Oz con dentro i corpi di Janni e il killer. In questo modo hanno modo di avere accesso all’eredità dei Gogolak, la quale sarebbe stata possibile avere con due certificati di morte tra Janni, Jimmy e Cynthia. Così mentre Cynthia e Jill vanno a ritirare l’eredità, Jimmy porta Oz e Frankie a fare un giro in barca. Frankie dice a Jimmy di uccidere Oz per tenersi per loro l’eredità, mentre nel finale a sorpresa Jimmy spara a Frankie invece che ad Oz. Così le due coppie che sono rimaste (Oz-Cynthia e Jimmy-Jill) decidono di sposarsi e ritirarsi altrove con i soldi dell’eredità.

Trailer


Upload on Youtube

Info File

Video
ID : 1
Format : AVC
Format/Info : Advanced Video Codec
Format profile : [email protected]
Format settings, CABAC : Yes
Format settings, ReFrames : 4 frames
Codec ID : V_MPEG4/ISO/AVC
Duration : 1h 38mn
Bit rate : 10.6 Mbps
Width : 1 920 pixels
Height : 1 080 pixels
Display aspect ratio : 16:9
Frame rate mode : Constant
Frame rate : 23.976 fps
Color space : YUV
Chroma subsampling : 4:2:0
Bit depth : 8 bits
Scan type : Progressive
Bits/(Pixel*Frame) : 0.214
Stream size : 7.17 GiB (89%)
Title : FBI: Protezione Testimoni
Writing library : x264 core 132 r2309+704+40 1360ac3 tMod [[email protected]:2:0 X86_64]
Encoding settings : cabac=1 / ref=4 / deblock=1:-3:-3 / analyse=0x3:0x113 / me=umh / subme=11 / psy=1 / fade_compensate=0.00 / psy_rd=1.05:0.00 / mixed_ref=1 / me_range=48 / chroma_me=1 / trellis=2 / 8x8dct=1 / cqm=0 / deadzone=21,11 / fast_pskip=0 / chroma_qp_offset=-2 / threads=6 / lookahead_threads=1 / sliced_threads=0 / nr=0 / decimate=1 / interlaced=0 / bluray_compat=0 / constrained_intra=0 / fgo=0 / bframes=8 / b_pyramid=2 / b_adapt=2 / b_bias=0 / direct=3 / weightb=1 / open_gop=0 / weightp=2 / keyint=250 / keyint_min=23 / scenecut=40 / intra_refresh=0 / rc_lookahead=40 / rc=2pass / mbtree=0 / bitrate=10622 / ratetol=1.0 / qcomp=0.75 / qpmin=0 / qpmax=69 / qpstep=4 / cplxblur=20.0 / qblur=0.5 / vbv_maxrate=50000 / vbv_bufsize=62500 / nal_hrd=none / ip_ratio=1.40 / pb_ratio=1.30 / aq=1:0.80 / aq-sensitivity=10.00 / aq-factor=1.00:1.00:1.00 / aq2=0 / aq3=0
Language : English
Default : Yes
Forced : No
Color primaries : BT.709
Transfer characteristics : BT.709
Matrix coefficients : BT.709

Audio #1
ID : 2
Format : AC-3
Format/Info : Audio Coding 3
Mode extension : CM (complete main)
Format settings, Endianness : Big
Codec ID : A_AC3
Duration : 1h 38mn
Bit rate mode : Constant
Bit rate : 640 Kbps
Channel count : 2 channels
Channel positions : Front: L R
Sampling rate : 48.0 KHz
Bit depth : 16 bits
Compression mode : Lossy
Stream size : 452 MiB (5%)
Title : Italiano AC3 2.0
Language : Italian
Default : Yes
Forced : No

Immagini

FBI: Protezione Testimoni (2000), [BDMux 1080p – H264 – Ita Eng Ac3 – Sub Eng]
FBI: Protezione Testimoni (2000), [BDMux 1080p – H264 – Ita Eng Ac3 – Sub Eng]
FBI: Protezione Testimoni (2000), [BDMux 1080p – H264 – Ita Eng Ac3 – Sub Eng]
FBI: Protezione Testimoni (2000), [BDMux 1080p – H264 – Ita Eng Ac3 – Sub Eng]
FBI: Protezione Testimoni (2000), [BDMux 1080p – H264 – Ita Eng Ac3 – Sub Eng]

Trackers

http://tracker.publicbt.com:80/
http://tracker.istole.it:80/
http://tracker.tntvillage.scambioetico.org:2710/scrape
http://open.demonii.com:1337/scrape
http://tracker.coppersurfer.tk:6969/scrape
http://tracker.openbittorrent.com/scrape