loading...
loading...


    1. Fear.the.Walking.Dead.S02e08.Grotesque.ITA.ENG.1080p.DLMux.H264-sp_54321.mkv
      1.78 Gb
    2. Fear.the.Walking.Dead.S02e09.Los.Muertos.ITA.ENG.1080p.DLMux.H264-sp_54321.mkv
      1.79 Gb
    3. Fear.the.Walking.Dead.S02e10.Do.Not.Disturb.ITA.ENG.1080p.DLMux.H264-sp_54321.mkv
      1.69 Gb
    4. Fear.the.Walking.Dead.S02e11.Pablo.and.Jessica.ITA.ENG.1080p.DLMux.H264-sp_54321.mkv
      1.73 Gb
    5. Fear.the.Walking.Dead.S02e12.Pillar.of.Salt.ITA.ENG.1080p.DLMux.H264-sp_54321.mkv
      1.71 Gb
    6. Fear.the.Walking.Dead.S02e13.Date.Of.Death.ITA.ENG.1080p.DLMux.1.H264-sp_54321.mkv
      1.62 Gb
    7. Fear.the.Walking.Dead.S02e14.Wrath.ITA.ENG.1080p.DLMux.H264-sp_54321.mkv
      1.68 Gb
    8. Fear.the.Walking.Dead.S02e15.North.ITA.ENG.1080p.DLMux.H264-sp_54321.mkv
      1.81 Gb
      1. Fear.the.Walking.Dead.S02e08.Grotesque.ITA.ENG.1080p.DLMux.H264-sp_54321.en.srt
        12.52 Kb
      2. Fear.the.Walking.Dead.S02e08.Grotesque.ITA.ENG.1080p.DLMux.H264-sp_54321.ita.srt
        14.41 Kb
      3. Fear.the.Walking.Dead.S02e08.Grotesque.ITA.ENG.1080p.DLMux.H264-sp_54321.srt
        1.56 Kb
      4. Fear.the.Walking.Dead.S02e09.Los.Muertos.ITA.ENG.1080p.DLMux.H264-sp_54321.en.srt
        24.26 Kb
      5. Fear.the.Walking.Dead.S02e09.Los.Muertos.ITA.ENG.1080p.DLMux.H264-sp_54321.ita.srt
        30.02 Kb
      6. Fear.the.Walking.Dead.S02e09.Los.Muertos.ITA.ENG.1080p.DLMux.H264-sp_54321.srt
        5.25 Kb
      7. Fear.the.Walking.Dead.S02e10.Do.Not.Disturb.ITA.ENG.1080p.DLMux.H264-sp_54321.en.srt
        35.48 Kb
      8. Fear.the.Walking.Dead.S02e10.Do.Not.Disturb.ITA.ENG.1080p.DLMux.H264-sp_54321.ita.srt
        37.46 Kb
      9. Fear.the.Walking.Dead.S02e11.Pablo.and.Jessica.ITA.ENG.1080p.DLMux.H264-sp_54321.en.srt
        32.87 Kb
      10. Fear.the.Walking.Dead.S02e11.Pablo.and.Jessica.ITA.ENG.1080p.DLMux.H264-sp_54321.ita.srt
        34.2 Kb
      11. Fear.the.Walking.Dead.S02e11.Pablo.and.Jessica.ITA.ENG.1080p.DLMux.H264-sp_54321.srt
        1.14 Kb
      12. Fear.the.Walking.Dead.S02e12.Pillar.of.Salt.ITA.ENG.1080p.DLMux.H264-sp_54321.en.srt
        31.69 Kb
      13. Fear.the.Walking.Dead.S02e12.Pillar.of.Salt.ITA.ENG.1080p.DLMux.H264-sp_54321.ita.srt
        40.51 Kb
      14. Fear.the.Walking.Dead.S02e12.Pillar.of.Salt.ITA.ENG.1080p.DLMux.H264-sp_54321.srt
        9.02 Kb
      15. Fear.the.Walking.Dead.S02e13.Date.Of.Death.ITA.ENG.1080p.DLMux.1.H264-sp_54321.en.srt
        34.62 Kb
      16. Fear.the.Walking.Dead.S02e13.Date.Of.Death.ITA.ENG.1080p.DLMux.1.H264-sp_54321.ita.srt
        37.52 Kb
      17. Fear.the.Walking.Dead.S02e13.Date.Of.Death.ITA.ENG.1080p.DLMux.1.H264-sp_54321.srt
        1.75 Kb
      18. Fear.the.Walking.Dead.S02e14.Wrath.ITA.ENG.1080p.DLMux.H264-sp_54321.en.srt
        29.15 Kb
      19. Fear.the.Walking.Dead.S02e14.Wrath.ITA.ENG.1080p.DLMux.H264-sp_54321.ita.srt
        31.11 Kb
      20. Fear.the.Walking.Dead.S02e14.Wrath.ITA.ENG.1080p.DLMux.H264-sp_54321.srt
        2.61 Kb
      21. Fear.the.Walking.Dead.S02e15.North.ITA.ENG.1080p.DLMux.H264-sp_54321.en.srt
        18.42 Kb
      22. Fear.the.Walking.Dead.S02e15.North.ITA.ENG.1080p.DLMux.H264-sp_54321.ita.srt
        25.23 Kb
      23. Fear.the.Walking.Dead.S02e15.North.ITA.ENG.1080p.DLMux.H264-sp_54321.srt
        7.07 Kb




Info

user posted image

.: Scheda della serie :.
Regista: Adam Davidson
Sceneggiatore: Dave Erickson, Robert Kirkman

Titolo Originale: Fear The Walking Dead
Nazione: USA
Lingua Originale: Inglese
Anno: 2015 – in corso
Durata: 45 min circa
Genere: Drammatico
Prodotto da: AMC

Cast:
Kim Dickens: Madison Clark
Cliff Curtis: Travis Manawa
Frank Dillane: Nick Clark
Alycia Debnam-Carey: Alicia Clark
Lorenzo James Henrie: Christopher Manawa
Elizabeth Rodriguez: Liza Ortiz
Mercedes Mason: Ofelia Salazar
Rubén Blades: Daniel Salazar
Patricia Reyes Spindola: Griselda Salazar

.: Info :.
Fear the Walking Dead e` una serie televisiva statunitense creata da Robert Kirkman e Dave Erickson che ha debuttato il 23 agosto 2015 su AMC. Si tratta di uno spin-off della serie televisiva The Walking Dead, basata sul fumetto omonimo di Robert Kirkman, Tony Moore e Charlie Adlard. La AMC ha dato il via libera alla serie il 9 marzo 2015 con un ordine di due stagioni.

Ambientata a Los Angeles, la serie segue un insegnante divorziato, una consulente scolastica e i suoi due figli durante le prime fasi dell’apocalisse zombie.

Info File

General
Unique ID : 251693353530647368045765868145238508923 (0xBD5A606B44CEA4078828B4781F4E857B)
Complete name : Fear.the.Walking.Dead.S02e08-15.1080p.x264.ITA.ENG-sp_54321/Fear.the.Walking.Dead.S02e08.Grotesque.ITA.ENG.1080p.DLMux.H264-sp_54321.mkv
Format : Matroska
Format version : Version 4 / Version 2
File size : 1.78 GiB
Duration : 44mn 42s
Overall bit rate : 5 708 Kbps
Movie name : Fear.the.Walking.Dead.S02E08.1080p.WEB-DL.DD5.1.H264-RARBG
Encoded date : UTC 2016-10-19 11:40:00
Writing application : mkvmerge v9.4.2 ('So High') 64bit
Writing library : libebml v1.3.4 + libmatroska v1.4.5
Attachements : cover_land.jpg / small_cover.jpg / small_cover_land.jpg / cover.jpg
DURATION : 00:44:42.552000000
NUMBER_OF_FRAMES : 111773
NUMBER_OF_BYTES : 42920832
_STATISTICS_WRITING_APP : mkvmerge v9.4.2 ('So High') 64bit
_STATISTICS_WRITING_DATE_UTC : 2016-10-19 11:40:00
_STATISTICS_TAGS : BPS DURATION NUMBER_OF_FRAMES NUMBER_OF_BYTES

Video
ID : 1
Format : AVC
Format/Info : Advanced Video Codec
Format profile : [email protected]
Format settings, CABAC : Yes
Format settings, ReFrames : 4 frames
Codec ID : V_MPEG4/ISO/AVC
Duration : 44mn 42s
Bit rate : 5 083 Kbps
Width : 1 916 pixels
Height : 1 076 pixels
Display aspect ratio : 16:9
Frame rate mode : Constant
Frame rate : 23.976 fps
Color space : YUV
Chroma subsampling : 4:2:0
Bit depth : 8 bits
Scan type : Progressive
Bits/(Pixel*Frame) : 0.103
Stream size : 1.59 GiB (89%)
Language : English
Default : Yes
Forced : No
Color range : Limited
Color primaries : BT.709
Transfer characteristics : BT.709
Matrix coefficients : BT.709

Audio #1
ID : 2
Format : MPEG Audio
Format version : Version 1
Format profile : Layer 3
Codec ID : A_MPEG/L3
Codec ID/Hint : MP3
Duration : 44mn 42s
Bit rate mode : Constant
Bit rate : 128 Kbps
Channel(s) : 2 channels
Sampling rate : 48.0 KHz
Compression mode : Lossy
Stream size : 40.9 MiB (2%)
Title : Italiano
Writing library : LAME3.99r
Encoding settings : -m s -V 4 -q 3 -lowpass 17 -b 128
Language : Italian
Default : Yes
Forced : Yes

Audio #2
ID : 3
Format : AC-3
Format/Info : Audio Coding 3
Mode extension : CM (complete main)
Format settings, Endianness : Big
Codec ID : A_AC3
Duration : 44mn 42s
Bit rate mode : Constant
Bit rate : 384 Kbps
Channel(s) : 6 channels
Channel positions : Front: L C R, Side: L R, LFE
Sampling rate : 48.0 KHz
Compression mode : Lossy
Stream size : 123 MiB (7%)
Title : English
Language : English
Default : No
Forced : No

Text #1
ID : 4
Format : UTF-8
Codec ID : S_TEXT/UTF8
Codec ID/Info : UTF-8 Plain Text
Title : Italiano - Forced
Language : Italian
Default : Yes
Forced : Yes

Text #2
ID : 5
Format : UTF-8
Codec ID : S_TEXT/UTF8
Codec ID/Info : UTF-8 Plain Text
Title : Italiano
Language : Italian
Default : No
Forced : No

Text #3
ID : 6
Format : UTF-8
Codec ID : S_TEXT/UTF8
Codec ID/Info : UTF-8 Plain Text
Title : English
Language : English
Default : No
Forced : No

Trackers

http://tracker.istole.it:80/
http://tracker.tntvillage.scambioetico.org:2710/scrape
http://tracker.publicbt.com:80/
http://open.demonii.com:1337/scrape
http://tracker.coppersurfer.tk:6969/scrape
http://tracker.openbittorrent.com/scrape