loading...
loading...






Info

user posted image

Scheda della serie
Regista: Adam Davidson
Sceneggiatore: Dave Erickson, Robert Kirkman

Titolo Originale: Fear The Walking Dead
Nazione: USA
Lingua Originale: Inglese
Anno: 2015 – in corso
Durata: 45 min circa
Genere: Drammatico
Prodotto da: AMC

Cast:
Kim Dickens: Madison Clark
Cliff Curtis: Travis Manawa
Frank Dillane: Nick Clark
Alycia Debnam-Carey: Alicia Clark
Lorenzo James Henrie: Christopher Manawa
Elizabeth Rodriguez: Liza Ortiz
Mercedes Mason: Ofelia Salazar
Rubén Blades: Daniel Salazar
Patricia Reyes Spindola: Griselda Salazar

Info
Fear the Walking Dead e` una serie televisiva statunitense creata da Robert Kirkman e Dave Erickson che ha debuttato il 23 agosto 2015 su AMC. Si tratta di uno spin-off della serie televisiva The Walking Dead, basata sul fumetto omonimo di Robert Kirkman, Tony Moore e Charlie Adlard. La AMC ha dato il via libera alla serie il 9 marzo 2015 con un ordine di due stagioni.

Ambientata a Los Angeles, la serie segue un insegnante divorziato, una consulente scolastica e i suoi due figli durante le prime fasi dell’apocalisse zombie.
user posted image
user posted image
user posted image
user posted image

Info File

General
Complete name : FTWD.S02e01-07.XviD-sp_54321/Fear.The.Walking.Dead.s02e01.WEB-DL.ITA.ENG-sp_54321.avi
Format : AVI
Format/Info : Audio Video Interleave
File size : 503 MiB
Duration : 42 min
Overall bit rate : 1 642 kb/s
Movie name : Fear The Walking Dead S02e01 - sp_54321
Writing application : Lavf57.41.100

Video
ID : 0
Format : MPEG-4 Visual
Format profile : Advanced [email protected]
Format settings, BVOP : 2
Format settings, QPel : No
Format settings, GMC : No warppoints
Format settings, Matrix : Default (MPEG)
Codec ID : XVID
Codec ID/Hint : XviD
Duration : 42 min
Bit rate : 1 366 kb/s
Width : 720 pixels
Height : 400 pixels
Display aspect ratio : 16:9
Frame rate : 23.976 (23976/1000) FPS
Color space : YUV
Chroma subsampling : 4:2:0
Bit depth : 8 bits
Scan type : Progressive
Compression mode : Lossy
Bits/(Pixel*Frame) : 0.198
Stream size : 418 MiB (83%)
Writing library : XviD 73

Audio #1
ID : 1
Format : MPEG Audio
Format version : Version 1
Format profile : Layer 3
Mode : Joint stereo
Mode extension : MS Stereo
Codec ID : 55
Codec ID/Hint : MP3
Duration : 42 min
Bit rate mode : Constant
Bit rate : 128 kb/s
Channel(s) : 2 channels
Sampling rate : 48.0 kHz
Compression mode : Lossy
Stream size : 39.2 MiB (8%)
Alignment : Aligned on interleaves
Interleave, duration : 24 ms (0.58 video frame)
Interleave, preload duration : 24 ms

Audio #2
ID : 2
Format : MPEG Audio
Format version : Version 1
Format profile : Layer 3
Mode : Joint stereo
Mode extension : MS Stereo
Codec ID : 55
Codec ID/Hint : MP3
Duration : 42 min
Bit rate mode : Constant
Bit rate : 128 kb/s
Channel(s) : 2 channels
Sampling rate : 48.0 kHz
Compression mode : Lossy
Stream size : 39.2 MiB (8%)
Alignment : Aligned on interleaves
Interleave, duration : 24 ms (0.58 video frame)
Interleave, preload duration : 24 ms

General
Complete name : FTWD.S02e01-07.XviD-sp_54321/Fear.The.Walking.Dead.s02e01.WEB-DL.ITA.ENG-sp_54321.en.srt
Format : SubRip
File size : 36.9 KiB

Text
Format : SubRip
Compression mode : Lossless

General
Complete name : FTWD.S02e01-07.XviD-sp_54321/Fear.The.Walking.Dead.s02e04.WEB-DL.ITA.ENG-sp_54321.en.srt
Format : SubRip
File size : 41.6 KiB

Text
Format : SubRip
Compression mode : Lossless

General
Complete name : FTWD.S02e01-07.XviD-sp_54321/Fear.The.Walking.Dead.s02e04.WEB-DL.ITA.ENG-sp_54321.ita.srt
Format : SubRip
File size : 41.2 KiB

Text
Format : SubRip
Compression mode : Lossless

General
Complete name : FTWD.S02e01-07.XviD-sp_54321/Fear.The.Walking.Dead.s02e04.WEB-DL.ITA.ENG-sp_54321.srt
Format : SubRip
File size : 208 Bytes

Text
Format : SubRip
Compression mode : Lossless

General
Complete name : FTWD.S02e01-07.XviD-sp_54321/Fear.The.Walking.Dead.s02e05.WEB-DL.ITA.ENG-sp_54321.avi
Format : AVI
Format/Info : Audio Video Interleave
File size : 552 MiB
Duration : 42 min
Overall bit rate : 1 835 kb/s
Movie name : Fear The Walking Dead S02e05 - sp_54321
Writing application : Lavf57.41.100

Video
ID : 0
Format : MPEG-4 Visual
Format profile : Advanced [email protected]
Format settings, BVOP : 2
Format settings, QPel : No
Format settings, GMC : No warppoints
Format settings, Matrix : Default (MPEG)
Codec ID : XVID
Codec ID/Hint : XviD
Duration : 42 min
Bit rate : 1 559 kb/s
Width : 720 pixels
Height : 400 pixels
Display aspect ratio : 16:9
Frame rate : 23.976 (23976/1000) FPS
Color space : YUV
Chroma subsampling : 4:2:0
Bit depth : 8 bits
Scan type : Progressive
Compression mode : Lossy
Bits/(Pixel*Frame) : 0.226
Stream size : 469 MiB (85%)
Writing library : XviD 73

Audio #1
ID : 1
Format : MPEG Audio
Format version : Version 1
Format profile : Layer 3
Mode : Joint stereo
Mode extension : MS Stereo
Codec ID : 55
Codec ID/Hint : MP3
Duration : 42 min
Bit rate mode : Constant
Bit rate : 128 kb/s
Channel(s) : 2 channels
Sampling rate : 48.0 kHz
Compression mode : Lossy
Stream size : 38.5 MiB (7%)
Alignment : Aligned on interleaves
Interleave, duration : 24 ms (0.58 video frame)
Interleave, preload duration : 24 ms

Audio #2
ID : 2
Format : MPEG Audio
Format version : Version 1
Format profile : Layer 3
Mode : Joint stereo
Mode extension : MS Stereo
Codec ID : 55
Codec ID/Hint : MP3
Duration : 42 min
Bit rate mode : Constant
Bit rate : 128 kb/s
Channel(s) : 2 channels
Sampling rate : 48.0 kHz
Compression mode : Lossy
Stream size : 38.5 MiB (7%)
Alignment : Aligned on interleaves
Interleave, duration : 24 ms (0.58 video frame)
Interleave, preload duration : 24 ms

General
Complete name : FTWD.S02e01-07.XviD-sp_54321/Fear.The.Walking.Dead.s02e05.WEB-DL.ITA.ENG-sp_54321.en.srt
Format : SubRip
File size : 38.9 KiB

Text
Format : SubRip
Compression mode : Lossless

General
Complete name : FTWD.S02e01-07.XviD-sp_54321/Fear.The.Walking.Dead.s02e05.WEB-DL.ITA.ENG-sp_54321.ita.srt
Format : SubRip
File size : 38.8 KiB

Text
Format : SubRip
Compression mode : Lossless

General
Complete name : FTWD.S02e01-07.XviD-sp_54321/Fear.The.Walking.Dead.s02e05.WEB-DL.ITA.ENG-sp_54321.srt
Format : SubRip
File size : 1.10 KiB

Text
Format : SubRip
Compression mode : Lossless

General
Complete name : FTWD.S02e01-07.XviD-sp_54321/Fear.The.Walking.Dead.s02e06.WEB-DL.ITA.ENG-sp_54321.avi
Format : AVI
Format/Info : Audio Video Interleave
File size : 553 MiB
Duration : 44 min
Overall bit rate : 1 719 kb/s
Movie name : Fear The Walking Dead S02e06 - sp_54321
Writing application : Lavf57.41.100

Video
ID : 0
Format : MPEG-4 Visual
Format profile : Advanced [email protected]
Format settings, BVOP : 2
Format settings, QPel : No
Format settings, GMC : No warppoints
Format settings, Matrix : Default (MPEG)
Codec ID : XVID
Codec ID/Hint : XviD
Duration : 44 min
Bit rate : 1 443 kb/s
Width : 720 pixels
Height : 400 pixels
Display aspect ratio : 16:9
Frame rate : 23.976 (23976/1000) FPS
Color space : YUV
Chroma subsampling : 4:2:0
Bit depth : 8 bits
Scan type : Progressive
Compression mode : Lossy
Bits/(Pixel*Frame) : 0.209
Stream size : 464 MiB (84%)
Writing library : XviD 73

Audio #1
ID : 1
Format : MPEG Audio
Format version : Version 1
Format profile : Layer 3
Mode : Joint stereo
Mode extension : MS Stereo
Codec ID : 55
Codec ID/Hint : MP3
Duration : 44 min
Bit rate mode : Constant
Bit rate : 128 kb/s
Channel(s) : 2 channels
Sampling rate : 48.0 kHz
Compression mode : Lossy
Stream size : 41.1 MiB (7%)
Alignment : Aligned on interleaves
Interleave, duration : 24 ms (0.58 video frame)
Interleave, preload duration : 24 ms

Audio #2
ID : 2
Format : MPEG Audio
Format version : Version 1
Format profile : Layer 3
Mode : Joint stereo
Mode extension : MS Stereo
Codec ID : 55
Codec ID/Hint : MP3
Duration : 44 min
Bit rate mode : Constant
Bit rate : 128 kb/s
Channel(s) : 2 channels
Sampling rate : 48.0 kHz
Compression mode : Lossy
Stream size : 41.1 MiB (7%)
Alignment : Aligned on interleaves
Interleave, duration : 24 ms (0.58 video frame)
Interleave, preload duration : 24 ms

General
Complete name : FTWD.S02e01-07.XviD-sp_54321/Fear.The.Walking.Dead.s02e06.WEB-DL.ITA.ENG-sp_54321.en.srt
Format : SubRip
File size : 32.3 KiB

Text
Format : SubRip
Compression mode : Lossless

General
Complete name : FTWD.S02e01-07.XviD-sp_54321/Fear.The.Walking.Dead.s02e06.WEB-DL.ITA.ENG-sp_54321.ita.srt
Format : SubRip
File size : 32.8 KiB

Text
Format : SubRip
Compression mode : Lossless

General
Complete name : FTWD.S02e01-07.XviD-sp_54321/Fear.The.Walking.Dead.s02e06.WEB-DL.ITA.ENG-sp_54321.srt
Format : SubRip
File size : 6.93 KiB

Text
Format : SubRip
Compression mode : Lossless

General
Complete name : FTWD.S02e01-07.XviD-sp_54321/Fear.The.Walking.Dead.s02e07.WEB-DL.ITA.ENG-sp_54321.avi
Format : AVI
Format/Info : Audio Video Interleave
File size : 553 MiB
Duration : 43 min
Overall bit rate : 1 794 kb/s
Movie name : Fear The Walking Dead S02e07 - sp_54321
Writing application : Lavf57.41.100

Video
ID : 0
Format : MPEG-4 Visual
Format profile : Advanced [email protected]
Format settings, BVOP : 2
Format settings, QPel : No
Format settings, GMC : No warppoints
Format settings, Matrix : Default (MPEG)
Codec ID : XVID
Codec ID/Hint : XviD
Duration : 43 min
Bit rate : 1 518 kb/s
Width : 720 pixels
Height : 400 pixels
Display aspect ratio : 16:9
Frame rate : 23.976 (23976/1000) FPS
Color space : YUV
Chroma subsampling : 4:2:0
Bit depth : 8 bits
Scan type : Progressive
Compression mode : Lossy
Bits/(Pixel*Frame) : 0.220
Stream size : 467 MiB (85%)
Writing library : XviD 73

Audio #1
ID : 1
Format : MPEG Audio
Format version : Version 1
Format profile : Layer 3
Mode : Joint stereo
Mode extension : MS Stereo
Codec ID : 55
Codec ID/Hint : MP3
Duration : 43 min
Bit rate mode : Constant
Bit rate : 128 kb/s
Channel(s) : 2 channels
Sampling rate : 48.0 kHz
Compression mode : Lossy
Stream size : 39.4 MiB (7%)
Alignment : Aligned on interleaves
Interleave, duration : 24 ms (0.58 video frame)
Interleave, preload duration : 24 ms

Audio #2
ID : 2
Format : MPEG Audio
Format version : Version 1
Format profile : Layer 3
Mode : Joint stereo
Mode extension : MS Stereo
Codec ID : 55
Codec ID/Hint : MP3
Duration : 43 min
Bit rate mode : Constant
Bit rate : 128 kb/s
Channel(s) : 2 channels
Sampling rate : 48.0 kHz
Compression mode : Lossy
Stream size : 39.4 MiB (7%)
Alignment : Aligned on interleaves
Interleave, duration : 24 ms (0.58 video frame)
Interleave, preload duration : 24 ms

General
Complete name : FTWD.S02e01-07.XviD-sp_54321/Fear.The.Walking.Dead.s02e07.WEB-DL.ITA.ENG-sp_54321.en.srt
Format : SubRip
File size : 29.6 KiB

Text
Format : SubRip
Compression mode : Lossless

General
Complete name : FTWD.S02e01-07.XviD-sp_54321/Fear.The.Walking.Dead.s02e07.WEB-DL.ITA.ENG-sp_54321.ita.srt
Format : SubRip
File size : 35.4 KiB

Text
Format : SubRip
Compression mode : Lossless

General
Complete name : FTWD.S02e01-07.XviD-sp_54321/Fear.The.Walking.Dead.s02e07.WEB-DL.ITA.ENG-sp_54321.srt
Format : SubRip
File size : 7.37 KiB

Text
Format : SubRip
Compression mode : Lossless

General
Complete name : FTWD.S02e01-07.XviD-sp_54321/Fear.The.Walking.Dead.s02e01.WEB-DL.ITA.ENG-sp_54321.srt
Format : SubRip
File size : 195 Bytes

Text
Format : SubRip
Compression mode : Lossless

General
Complete name : FTWD.S02e01-07.XviD-sp_54321/Fear.The.Walking.Dead.s02e02.WEB-DL.ITA.ENG-sp_54321.avi
Format : AVI
Format/Info : Audio Video Interleave
File size : 552 MiB
Duration : 44 min
Overall bit rate : 1 753 kb/s
Movie name : Fear The Walking Dead S02e02 - sp_54321
Writing application : Lavf57.41.100

Video
ID : 0
Format : MPEG-4 Visual
Format profile : Advanced [email protected]
Format settings, BVOP : 2
Format settings, QPel : No
Format settings, GMC : No warppoints
Format settings, Matrix : Default (MPEG)
Codec ID : XVID
Codec ID/Hint : XviD
Duration : 44 min
Bit rate : 1 477 kb/s
Width : 720 pixels
Height : 400 pixels
Display aspect ratio : 16:9
Frame rate : 23.976 (23976/1000) FPS
Color space : YUV
Chroma subsampling : 4:2:0
Bit depth : 8 bits
Scan type : Progressive
Compression mode : Lossy
Bits/(Pixel*Frame) : 0.214
Stream size : 465 MiB (84%)
Writing library : XviD 73

Audio #1
ID : 1
Format : MPEG Audio
Format version : Version 1
Format profile : Layer 3
Mode : Joint stereo
Mode extension : MS Stereo
Codec ID : 55
Codec ID/Hint : MP3
Duration : 44 min
Bit rate mode : Constant
Bit rate : 128 kb/s
Channel(s) : 2 channels
Sampling rate : 48.0 kHz
Compression mode : Lossy
Stream size : 40.3 MiB (7%)
Alignment : Aligned on interleaves
Interleave, duration : 24 ms (0.58 video frame)
Interleave, preload duration : 24 ms

Audio #2
ID : 2
Format : MPEG Audio
Format version : Version 1
Format profile : Layer 3
Mode : Joint stereo
Mode extension : MS Stereo
Codec ID : 55
Codec ID/Hint : MP3
Duration : 44 min
Bit rate mode : Constant
Bit rate : 128 kb/s
Channel(s) : 2 channels
Sampling rate : 48.0 kHz
Compression mode : Lossy
Stream size : 40.3 MiB (7%)
Alignment : Aligned on interleaves
Interleave, duration : 24 ms (0.58 video frame)
Interleave, preload duration : 24 ms

General
Complete name : FTWD.S02e01-07.XviD-sp_54321/Fear.The.Walking.Dead.s02e02.WEB-DL.ITA.ENG-sp_54321.en.srt
Format : SubRip
File size : 45.0 KiB

Text
Format : SubRip
Compression mode : Lossless

General
Complete name : FTWD.S02e01-07.XviD-sp_54321/Fear.The.Walking.Dead.s02e02.WEB-DL.ITA.ENG-sp_54321.ita.srt
Format : SubRip
File size : 43.5 KiB

Text
Format : SubRip
Compression mode : Lossless

General
Complete name : FTWD.S02e01-07.XviD-sp_54321/Fear.The.Walking.Dead.s02e02.WEB-DL.ITA.ENG-sp_54321.srt
Format : SubRip
File size : 213 Bytes

Text
Format : SubRip
Compression mode : Lossless

General
Complete name : FTWD.S02e01-07.XviD-sp_54321/Fear.The.Walking.Dead.s02e03.WEB-DL.ITA.ENG-sp_54321.avi
Format : AVI
Format/Info : Audio Video Interleave
File size : 552 MiB
Duration : 42 min
Overall bit rate : 1 801 kb/s
Movie name : Fear The Walking Dead S02e03 - sp_54321
Writing application : Lavf57.41.100

Video
ID : 0
Format : MPEG-4 Visual
Format profile : Advanced [email protected]
Format settings, BVOP : 2
Format settings, QPel : No
Format settings, GMC : No warppoints
Format settings, Matrix : Default (MPEG)
Codec ID : XVID
Codec ID/Hint : XviD
Duration : 42 min
Bit rate : 1 525 kb/s
Width : 720 pixels
Height : 400 pixels
Display aspect ratio : 16:9
Frame rate : 23.976 (23976/1000) FPS
Color space : YUV
Chroma subsampling : 4:2:0
Bit depth : 8 bits
Scan type : Progressive
Compression mode : Lossy
Bits/(Pixel*Frame) : 0.221
Stream size : 467 MiB (85%)
Writing library : XviD 73

Audio #1
ID : 1
Format : MPEG Audio
Format version : Version 1
Format profile : Layer 3
Mode : Joint stereo
Mode extension : MS Stereo
Codec ID : 55
Codec ID/Hint : MP3
Duration : 42 min
Bit rate mode : Constant
Bit rate : 128 kb/s
Channel(s) : 2 channels
Sampling rate : 48.0 kHz
Compression mode : Lossy
Stream size : 39.2 MiB (7%)
Alignment : Aligned on interleaves
Interleave, duration : 24 ms (0.58 video frame)
Interleave, preload duration : 24 ms

Audio #2
ID : 2
Format : MPEG Audio
Format version : Version 1
Format profile : Layer 3
Mode : Joint stereo
Mode extension : MS Stereo
Codec ID : 55
Codec ID/Hint : MP3
Duration : 42 min
Bit rate mode : Constant
Bit rate : 128 kb/s
Channel(s) : 2 channels
Sampling rate : 48.0 kHz
Compression mode : Lossy
Stream size : 39.2 MiB (7%)
Alignment : Aligned on interleaves
Interleave, duration : 24 ms (0.58 video frame)
Interleave, preload duration : 24 ms

General
Complete name : FTWD.S02e01-07.XviD-sp_54321/Fear.The.Walking.Dead.s02e03.WEB-DL.ITA.ENG-sp_54321.en.srt
Format : SubRip
File size : 28.8 KiB

Text
Format : SubRip
Compression mode : Lossless

General
Complete name : FTWD.S02e01-07.XviD-sp_54321/Fear.The.Walking.Dead.s02e03.WEB-DL.ITA.ENG-sp_54321.ita.srt
Format : SubRip
File size : 26.6 KiB

Text
Format : SubRip
Compression mode : Lossless

General
Complete name : FTWD.S02e01-07.XviD-sp_54321/Fear.The.Walking.Dead.s02e03.WEB-DL.ITA.ENG-sp_54321.srt
Format : SubRip
File size : 620 Bytes

Text
Format : SubRip
Compression mode : Lossless

General
Complete name : FTWD.S02e01-07.XviD-sp_54321/Fear.The.Walking.Dead.s02e01.WEB-DL.ITA.ENG-sp_54321.ita.srt
Format : SubRip
File size : 33.2 KiB

Text
Format : SubRip
Compression mode : Lossless

General
Complete name : FTWD.S02e01-07.XviD-sp_54321/Fear.The.Walking.Dead.s02e04.WEB-DL.ITA.ENG-sp_54321.avi
Format : AVI
Format/Info : Audio Video Interleave
File size : 553 MiB
Duration : 44 min
Overall bit rate : 1 754 kb/s
Movie name : Fear The Walking Dead S02e04 - sp_54321
Writing application : Lavf57.41.100

Video
ID : 0
Format : MPEG-4 Visual
Format profile : Advanced [email protected]
Format settings, BVOP : 2
Format settings, QPel : No
Format settings, GMC : No warppoints
Format settings, Matrix : Default (MPEG)
Codec ID : XVID
Codec ID/Hint : XviD
Duration : 44 min
Bit rate : 1 478 kb/s
Width : 720 pixels
Height : 400 pixels
Display aspect ratio : 16:9
Frame rate : 23.976 (23976/1000) FPS
Color space : YUV
Chroma subsampling : 4:2:0
Bit depth : 8 bits
Scan type : Progressive
Compression mode : Lossy
Bits/(Pixel*Frame) : 0.214
Stream size : 465 MiB (84%)
Writing library : XviD 73

Audio #1
ID : 1
Format : MPEG Audio
Format version : Version 1
Format profile : Layer 3
Mode : Joint stereo
Mode extension : MS Stereo
Codec ID : 55
Codec ID/Hint : MP3
Duration : 44 min
Bit rate mode : Constant
Bit rate : 128 kb/s
Channel(s) : 2 channels
Sampling rate : 48.0 kHz
Compression mode : Lossy
Stream size : 40.3 MiB (7%)
Alignment : Aligned on interleaves
Interleave, duration : 24 ms (0.58 video frame)
Interleave, preload duration : 24 ms

Audio #2
ID : 2
Format : MPEG Audio
Format version : Version 1
Format profile : Layer 3
Mode : Joint stereo
Mode extension : MS Stereo
Codec ID : 55
Codec ID/Hint : MP3
Duration : 44 min
Bit rate mode : Constant
Bit rate : 128 kb/s
Channel(s) : 2 channels
Sampling rate : 48.0 kHz
Compression mode : Lossy
Stream size : 40.3 MiB (7%)
Alignment : Aligned on interleaves
Interleave, duration : 24 ms (0.58 video frame)
Interleave, preload duration : 24 ms

Trackers

http://tracker.istole.it:80/
http://tracker.publicbt.com:80/
http://tracker.tntvillage.scambioetico.org:2710/scrape
http://open.demonii.com:1337/scrape
http://tracker.coppersurfer.tk:6969/scrape
http://tracker.openbittorrent.com/scrape