loading...
loading...






Info

Frontier(s)


6.3
IMDB: 6.3/10 20,559 votes

Durata: 108 min

Released:

Anno: 23 Jan 2008

Direttore:

Premi: 1 win & 6 nominations.

Budget: 3000000$

Stato: Released

Paese: France, Switzerland

Tagline: Farà molto male

Cast:




Nel 2005 a Parigi il candidato dell’estrema destra sta per vincere le elezioni presidenziali e ciò causa delle violente rivolte in tutta la città. Cinque ragazzi tra cui Yasmin, una ragazza incinta, approfittano della confusione generale per mettere a segno una rapina ad una banca per permettere alla ragazza di abortire, ma vengono inseguiti dai poliziotti che feriscono gravemente uno di loro.
Il cast del film

I ragazzi, che avevano intenzione di fuggire in Olanda, decidono di dividersi: il ferito (che muore poco dopo) viene portato in ospedale da Yasmin e dal suo ex fidanzato, mentre Tom e Farid raggiungono un ostello alla frontiera tra la Francia e l’Olanda per attenderli. L’ostello è gestito da una famiglia con due provocanti ragazze, che vengono subito invitate nella camera dei due ragazzi per fare del sesso, dopodiché le due ragazze……………………..

Trailer


Upload on Youtube

Info File

Complete name : C:\Users\robbyrs\Desktop\Frontiers - Ai confini dell'inferno (2007).avi
Format : AVI
Format/Info : Audio Video Interleave
File size : 1.39 GiB
Duration : 1h 44mn
Overall bit rate : 1 914 Kbps
Writing library : VirtualDub build 18160/release

Video
ID : 0
Format : MPEG-4 Visual
Format profile : Advanced [email protected]
Format settings, BVOP : Yes
Format settings, QPel : No
Format settings, GMC : No warppoints
Format settings, Matrix : Custom
Muxing mode : Packed bitstream
Codec ID : XVID
Codec ID/Hint : XviD
Duration : 1h 44mn
Bit rate : 1 456 Kbps
Width : 720 pixels
Height : 320 pixels
Display aspect ratio : 2.25:1
Frame rate : 25.000 fps
Color space : YUV
Chroma subsampling : 4:2:0
Bit depth : 8 bits
Scan type : Progressive
Bits/(Pixel*Frame) : 0.253
Stream size : 1.06 GiB (76%)
Writing library : XviD 1.2.1 (UTC 2008-12-04)

Audio
ID : 1
Format : AC-3
Format/Info : Audio Coding 3
Mode extension : CM (complete main)
Codec ID : 2000
Duration : 1h 44mn
Bit rate mode : Constant
Bit rate : 448 Kbps
Channel(s) : 6 channels
Channel positions : Front: L C R, Side: L R, LFE
Sampling rate : 48.0 KHz
Bit depth : 16 bits
Stream size : 333 MiB (23%)
Alignment : Split accross interleaves
Interleave, duration : 40 ms (1.00 video frame)
Interleave, preload duration : 500 ms

Immagini

Frontiers – Ai confini dell’inferno (2007), [XviD – Ita Ac3 5.1]
Frontiers – Ai confini dell’inferno (2007), [XviD – Ita Ac3 5.1]
Frontiers – Ai confini dell’inferno (2007), [XviD – Ita Ac3 5.1]
Frontiers – Ai confini dell’inferno (2007), [XviD – Ita Ac3 5.1]
Frontiers – Ai confini dell’inferno (2007), [XviD – Ita Ac3 5.1]
Frontiers – Ai confini dell’inferno (2007), [XviD – Ita Ac3 5.1]
Frontiers – Ai confini dell’inferno (2007), [XviD – Ita Ac3 5.1]
Frontiers – Ai confini dell’inferno (2007), [XviD – Ita Ac3 5.1]
Frontiers – Ai confini dell’inferno (2007), [XviD – Ita Ac3 5.1]

Trackers

http://tracker.publicbt.com:80/
http://tracker.istole.it:80/
http://tracker.tntvillage.scambioetico.org:2710/scrape
http://open.demonii.com:1337/scrape
http://tracker.coppersurfer.tk:6969/scrape
http://tracker.openbittorrent.com/scrape

Torrent correlati

Torrent Name Dimm. Creato Seed Leech
comment icon
3.89 Gb 2 mesi fa 2 2
comment icon
1023.26 Mb 2 mesi fa 0 0
comment icon
1.06 Gb 2 mesi fa 4 0
comment icon
1.37 Gb 2 settimane fa 3 3
comment icon
700.08 Mb 2 giorni fa 0 1