Info

Full Metal Jacket


8.3
IMDB: 8.3/10 519,467 votes

Durata: 116 min

Released:

Anno: 10 Jul 1987

Direttore:

Premi: Nominated for 1 Oscar. Another 7 wins & 9 nominations.

Budget: 17000000$

Incassi: 46357676$

Stato: Released

Paese: UK, USA

Tagline: « Una pagina epica della guerra del Vietnam. »

Cast:




Un gruppo di giovani marines appena reclutati e duramente addestrati dal sergente Hartman con metodi brutali, parte per il Vietnam, dove sperimenta gli orrori della guerra nella battaglia intorno alla città di Hue. Una cruda denuncia della follia e della presunzione umana – tema dominante in Kubrick, sia che essa si eserciti nello spazio o sulla Terra – resa efficace dal realismo della scenografia (l’inquietante geometria della caserma e l’apocalittico teatro della battaglia) e dalla nitida fotografia.

Trailer


Upload on Youtube

Info File

Video
ID : 1
Format : AVC
Format/Info : Advanced Video Codec
Format profile : High@L4.1
Format settings, CABAC : Yes
Format settings, ReFrames : 5 frames
Codec ID : V_MPEG4/ISO/AVC
Duration : 1h 56mn
Bit rate : 1 599 Kbps
Width : 720 pixels
Height : 400 pixels
Display aspect ratio : 16:9
Frame rate mode : Constant
Frame rate : 23.976 fps
Color space : YUV
Chroma subsampling : 4:2:0
Bit depth : 8 bits
Scan type : Progressive
Bits/(Pixel*Frame) : 0.232
Stream size : 1.29 GiB (66%)
Writing library : x264 core 148 r2597 e86f3a1
Encoding settings : cabac=1 / ref=5 / deblock=1:-1:-1 / analyse=0x3:0x113 / me=umh / subme=8 / psy=1 / psy_rd=1.00:0.15 / mixed_ref=1 / me_range=16 / chroma_me=1 / trellis=1 / 8x8dct=1 / cqm=0 / deadzone=21,11 / fast_pskip=1 / chroma_qp_offset=-3 / threads=6 / lookahead_threads=1 / sliced_threads=0 / nr=0 / decimate=1 / interlaced=0 / bluray_compat=0 / constrained_intra=0 / bframes=3 / b_pyramid=2 / b_adapt=2 / b_bias=0 / direct=3 / weightb=1 / open_gop=0 / weightp=2 / keyint=240 / keyint_min=23 / scenecut=40 / intra_refresh=0 / rc_lookahead=50 / rc=2pass / mbtree=1 / bitrate=1599 / ratetol=1.0 / qcomp=0.60 / qpmin=0 / qpmax=69 / qpstep=4 / cplxblur=20.0 / qblur=0.5 / vbv_maxrate=62500 / vbv_bufsize=78125 / nal_hrd=none / filler=0 / ip_ratio=1.40 / aq=1:1.00
Default : Yes
Forced : No

Audio #1
ID : 2
Format : AC-3
Format/Info : Audio Coding 3
Mode extension : CM (complete main)
Format settings, Endianness : Big
Codec ID : A_AC3
Duration : 1h 56mn
Bit rate mode : Constant
Bit rate : 384 Kbps
Channel(s) : 6 channels
Channel positions : Front: L C R, Side: L R, LFE
Sampling rate : 48.0 KHz
Bit depth : 16 bits
Compression mode : Lossy
Stream size : 320 MiB (16%)
Title : Ac3 5.1
Language : Italian
Default : Yes
Forced : No

Immagini

Full Metal Jacket (1987), [H264 – Ita Eng Ac3 5.1 – Sub Ita Eng]
Full Metal Jacket (1987), [H264 – Ita Eng Ac3 5.1 – Sub Ita Eng]
Full Metal Jacket (1987), [H264 – Ita Eng Ac3 5.1 – Sub Ita Eng]
Full Metal Jacket (1987), [H264 – Ita Eng Ac3 5.1 – Sub Ita Eng]
Full Metal Jacket (1987), [H264 – Ita Eng Ac3 5.1 – Sub Ita Eng]
Full Metal Jacket (1987), [H264 – Ita Eng Ac3 5.1 – Sub Ita Eng]
Full Metal Jacket (1987), [H264 – Ita Eng Ac3 5.1 – Sub Ita Eng]
Full Metal Jacket (1987), [H264 – Ita Eng Ac3 5.1 – Sub Ita Eng]
Full Metal Jacket (1987), [H264 – Ita Eng Ac3 5.1 – Sub Ita Eng]
Full Metal Jacket (1987), [H264 – Ita Eng Ac3 5.1 – Sub Ita Eng]

Trackers

http://tracker.publicbt.com:80/
http://tracker.istole.it:80/
http://tracker.tntvillage.scambioetico.org:2710/scrape
http://open.demonii.com:1337/scrape
http://tracker.coppersurfer.tk:6969/scrape
http://tracker.openbittorrent.com/scrape