loading...
loading...






Info

Gone Baby Gone


7.7
IMDB: 7.7/10 197,458 votes

Durata: 114 min

Released:

Anno: 19 Oct 2007

Direttore:

Premi: Nominated for 1 Oscar. Another 34 wins & 28 nominations.

Budget: 19000000$

Incassi: 34619699$

Stato: Released

Paese: USA

Tagline: Tutti vogliono la verità... fin quando non la trovano.

Cast:




Boston, 2007. Amanda McCready, quattro anni, viene rapita dalla sua camera una sera d’autunno. L’investigatore privato Patrick Kenzie e la sua socia e fidanzata Angie Gennaro vengono ingaggiati dagli zii della bambina per aiutare la polizia a ritrovarla. Grazie alle loro conoscenze nel quartiere, scoprono che la madre di Amanda, tossicodipendente e corriere della droga a tempo perso, è implicata in un giro alquanto pericoloso e che per alcuni dei suoi amici, la vita di un bambino vale meno di una lattina di birra. Mentre Amanda rischia di essere risucchiata in un nulla senza ritorno, i due investigatori si trovano invischiati…………….

Trailer


Upload on Youtube

Info File

Complete name : F:\Gone Baby Gone (2007)\Gone Baby Gone (2007).avi
Format : AVI
Format/Info : Audio Video Interleave
File size : 1.71 GiB
Duration : 1h 49mn
Overall bit rate : 2 241 Kbps
Writing application : VirtualDubMod 1.5.10.2 (build 2540/release)
Writing library : VirtualDubMod build 2540/release

Video
ID : 0
Format : MPEG-4 Visual
Format profile : Advanced [email protected]
Format settings, BVOP : Yes
Format settings, QPel : No
Format settings, GMC : No warppoints
Format settings, Matrix : Custom
Codec ID : XVID
Codec ID/Hint : XviD
Duration : 1h 49mn
Bit rate : 1 458 Kbps
Width : 720 pixels
Height : 400 pixels
Display aspect ratio : 16:9
Frame rate : 25.000 fps
Color space : YUV
Chroma subsampling : 4:2:0
Bit depth : 8 bits
Scan type : Progressive
Bits/(Pixel*Frame) : 0.203
Stream size : 1.11 GiB (65%)
Writing library : XviD 1.2.1 (UTC 2008-12-04)

Audio #1
ID : 1
Format : AC-3
Format/Info : Audio Coding 3
Mode extension : CM (complete main)
Codec ID : 2000
Duration : 1h 49mn
Bit rate mode : Constant
Bit rate : 384 Kbps
Channel(s) : 6 channels
Channel positions : Front: L C R, Side: L R, LFE
Sampling rate : 48.0 KHz
Bit depth : 16 bits
Video delay : 1s 100ms
Stream size : 300 MiB (17%)
Alignment : Split accross interleaves
Interleave, duration : 40 ms (1.00 video frame)
Interleave, preload duration : 500 ms
Language : Italian

Audio #2
ID : 2
Format : AC-3
Format/Info : Audio Coding 3
Mode extension : CM (complete main)
Codec ID : 2000
Duration : 1h 49mn
Bit rate mode : Constant
Bit rate : 384 Kbps
Channel(s) : 6 channels
Channel positions : Front: L C R, Side: L R, LFE
Sampling rate : 48.0 KHz
Bit depth : 16 bits
Video delay : 1s 100ms
Stream size : 300 MiB (17%)
Alignment : Split accross interleaves
Interleave, duration : 40 ms (1.00 video frame)
Interleave, preload duration : 500 ms
Language : English

Immagini

Gone Baby Gone (2007) + Bonus 42 minuti, [XviD – Ita Eng Ac3 5.1 – Sub Ita Eng]
Gone Baby Gone (2007) + Bonus 42 minuti, [XviD – Ita Eng Ac3 5.1 – Sub Ita Eng]
Gone Baby Gone (2007) + Bonus 42 minuti, [XviD – Ita Eng Ac3 5.1 – Sub Ita Eng]
Gone Baby Gone (2007) + Bonus 42 minuti, [XviD – Ita Eng Ac3 5.1 – Sub Ita Eng]
Gone Baby Gone (2007) + Bonus 42 minuti, [XviD – Ita Eng Ac3 5.1 – Sub Ita Eng]
Gone Baby Gone (2007) + Bonus 42 minuti, [XviD – Ita Eng Ac3 5.1 – Sub Ita Eng]
Gone Baby Gone (2007) + Bonus 42 minuti, [XviD – Ita Eng Ac3 5.1 – Sub Ita Eng]
Gone Baby Gone (2007) + Bonus 42 minuti, [XviD – Ita Eng Ac3 5.1 – Sub Ita Eng]
Gone Baby Gone (2007) + Bonus 42 minuti, [XviD – Ita Eng Ac3 5.1 – Sub Ita Eng]
Gone Baby Gone (2007) + Bonus 42 minuti, [XviD – Ita Eng Ac3 5.1 – Sub Ita Eng]
Gone Baby Gone (2007) + Bonus 42 minuti, [XviD – Ita Eng Ac3 5.1 – Sub Ita Eng]

Trackers

http://tracker.istole.it:80/
http://tracker.publicbt.com:80/
http://open.demonii.com:1337/scrape
http://tracker.coppersurfer.tk:6969/scrape
http://tracker.openbittorrent.com/scrape
http://tracker.tntvillage.scambioetico.org:2710/scrape