Info

user posted image

.: Scheda della serie :.
Ideatori Shonda Rhimes

Titolo originale Grey’s Anatomy
Paese Stati Uniti d’America
Anno 2005 – in produzione
Formato serie TV
Genere medical drama
Stagioni 13
Episodi 293
Durata 41 min (episodio)
Lingua originale inglese

Cast:
Ellen Pompeo: Meredith Grey
Patrick Dempsey: Derek Shepherd
Sandra Oh: Cristina Yang
Katherine Heigl: Izzie Stevens
Justin Chambers: Alex Karev
T. R. Knight: George O’Malley
Chandra Wilson: Miranda Bailey
James Pickens Jr.: Richard Webber
Isaiah Washington: Preston Burke
Kate Walsh: Addison Montgomery
Sara Ramírez: Callie Torres
Eric Dane: Mark Sloan
Chyler Leigh: Lexie Grey
Brooke Smith: Erica Hahn
Kevin McKidd: Owen Hunt
Jessica Capshaw: Arizona Robbins
Kim Raver: Teddy Altman
Sarah Drew: April Kepner
Jesse Williams: Jackson Avery
Camilla Luddington: Jo Wilson
Gaius Charles: Shane Ross
Jerrika Hinton: Stephanie Edwards
Tessa Ferrer: Leah Murphy
Caterina Scorsone: Amelia Shepherd
Kelly McCreary: Margaret Pierce
Jason George: Benjamin Warren
Martin Henderson: Nathan Riggs
Giacomo Gianniotti: Andrew DeLuca

.: Info :.
Grey’s Anatomy è una serie televisiva statunitense trasmessa dal 2005 dalla American Broadcasting Company (ABC). È un medical drama incentrato sulla vita della dottoressa Meredith Grey, una tirocinante di chirurgia nell’immaginario Seattle Grace Hospital di Seattle. Il titolo di Grey’s Anatomy gioca sull’omofonia fra il cognome della protagonista, Meredith Grey, e Henry Gray, autore del celebre manuale medico di anatomia Gray’s Anatomy (Anatomia del Gray). Lo Show è stato ideato da Shonda Rhimes, che ne è produttore esecutivo, insieme a Betsy Beers, Mark Gordon, Krista Vernoff, Rob Corn, Mark Wilding, e Allan Heinberg. Anche se la serie è ambientata a Seattle la serie è girato principalmente a Los Angeles, California.
I titoli dei singoli episodi sono spesso i titoli di una o più canzoni.

Inizialmente partita come una serie in midseason, Grey’s Anatomy ha ben presto attratto pubblico, ricevendo anche numerosi premi e riconoscimenti nel corso degli anni. Insieme a Desperate Housewives e Lost, è considerata una delle serie TV che hanno riportato al successo il network televisivo statunitense ABC. Nel 2007 ha generato uno spin-off, Private Practice, di cui è protagonista Kate Walsh nel ruolo di Addison Montgomery. Un adattamento della serie in versione soap opera, intitolato A corazón abierto, è andato in onda in Colombia dal 26 maggio 2010.

La serie è trasmessa in prima visione assoluta negli Stati Uniti da ABC. In lingua italiana la serie viene trasmessa in Italia in prima visione dal canale satellitare Fox Life, e in chiaro da Italia 1 (fino alla settima stagione) e da LA7 (dall’ottava stagione); in Svizzera è invece trasmessa da RSI LA1.

Meredith Grey è una giovane ragazza di Boston che, dopo la laurea in medicina, riesce ad entrare nel gruppo di tirocinanti di chirurgia del Seattle Grace Hospital. Si trasferisce così a Seattle, nella vecchia casa appartenuta alla madre. Qui si trova a condividere la nuova esperienza insieme ad un gruppo di giovani coetanei, tutti alle prese con i più svariati problemi, sentimentali e non. Meredith è figlia di Ellis Grey, una dottoressa di fama mondiale specialista in chirurgia generale, cosa che le fa sentire molto il peso del suo cognome. La sera prima di iniziare il tirocinio, in un pub Meredith incontra Derek, un affascinante uomo con cui passa la notte; il giorno dopo scopre che in realtà lui è Derek Shepherd, neurochirurgo del Seattle Grace, nonché suo supervisore. Meredith deve così districarsi tra lo studio e il lavoro per poter diventare un chirurgo, e i sentimenti che prova per Derek.

Info File

General
Unique ID : 205045776501766814174952864751820173759 (0x9A42614DCE8EAE739B0CAF94E7F371BF)
Complete name : Greys.Anatomy.S13e03.I.Ain.t.No.Miracle.Worker.720p.ITA.ENG.DLMux.H.264-sp_54321/Greys.Anatomy.S13e03.I.Ain.t.No.Miracle.Worker.720p.ITA.ENG.DLMux.H.264-sp_54321.mkv
Format : Matroska
Format version : Version 4 / Version 2
File size : 754 MiB
Duration : 41 min
Overall bit rate : 2 519 kb/s
Encoded date : UTC 2016-12-05 10:39:30
Writing application : mkvmerge v9.4.2 ('So High') 64bit
Writing library : libebml v1.3.4 + libmatroska v1.4.5

Video
ID : 1
Format : AVC
Format/Info : Advanced Video Codec
Format profile : [email protected]
Format settings, CABAC : Yes
Format settings, ReFrames : 5 frames
Codec ID : V_MPEG4/ISO/AVC
Duration : 41 min
Bit rate : 1 748 kb/s
Width : 1 280 pixels
Height : 720 pixels
Display aspect ratio : 16:9
Frame rate mode : Constant
Frame rate : 25.000 FPS
Color space : YUV
Chroma subsampling : 4:2:0
Bit depth : 8 bits
Scan type : Progressive
Bits/(Pixel*Frame) : 0.076
Stream size : 523 MiB (69%)
Writing library : x264 core 142 r2479 dd79a61
Encoding settings : cabac=1 / ref=5 / deblock=1:-1:-1 / analyse=0x1:0x111 / me=umh / subme=8 / psy=1 / psy_rd=1.00:0.15 / mixed_ref=1 / me_range=16 / chroma_me=1 / trellis=1 / 8x8dct=0 / cqm=0 / deadzone=21,11 / fast_pskip=1 / chroma_qp_offset=-3 / threads=6 / lookahead_threads=1 / sliced_threads=0 / nr=0 / decimate=1 / interlaced=0 / bluray_compat=0 / constrained_intra=0 / bframes=3 / b_pyramid=2 / b_adapt=2 / b_bias=0 / direct=3 / weightb=1 / open_gop=0 / weightp=2 / keyint=250 / keyint_min=25 / scenecut=40 / intra_refresh=0 / rc_lookahead=50 / rc=crf / mbtree=1 / crf=20.0 / qcomp=0.60 / qpmin=0 / qpmax=69 / qpstep=4 / vbv_maxrate=20000 / vbv_bufsize=25000 / crf_max=0.0 / nal_hrd=none / filler=0 / ip_ratio=1.40 / aq=1:1.00
Default : Yes
Forced : No
Color range : Limited
Color primaries : BT.709
Transfer characteristics : BT.709
Matrix coefficients : BT.709

Audio #1
ID : 2
Format : AC-3
Format/Info : Audio Coding 3
Mode extension : CM (complete main)
Format settings, Endianness : Big
Codec ID : A_AC3
Duration : 41 min
Bit rate mode : Constant
Bit rate : 384 kb/s
Channel(s) : 6 channels
Channel positions : Front: L C R, Side: L R, LFE
Sampling rate : 48.0 kHz
Frame rate : 31.250 FPS (1536 spf)
Compression mode : Lossy
Delay relative to video : -80 ms
Stream size : 115 MiB (15%)
Title : ITA
Language : Italian
Default : Yes
Forced : Yes

Audio #2
ID : 3
Format : AC-3
Format/Info : Audio Coding 3
Mode extension : CM (complete main)
Format settings, Endianness : Big
Codec ID : A_AC3
Duration : 41 min
Bit rate mode : Constant
Bit rate : 384 kb/s
Channel(s) : 6 channels
Channel positions : Front: L C R, Side: L R, LFE
Sampling rate : 48.0 kHz
Frame rate : 31.250 FPS (1536 spf)
Compression mode : Lossy
Delay relative to video : -80 ms
Stream size : 115 MiB (15%)
Title : ENG
Language : English
Default : No
Forced : No

Text #1
ID : 4
Format : UTF-8
Codec ID : S_TEXT/UTF8
Codec ID/Info : UTF-8 Plain Text
Bit rate : 0 b/s
Count of elements : 0
Stream size : 0.00 Byte (0%)
Title : NO SUBS
Default : Yes
Forced : Yes

Text #2
ID : 5
Format : UTF-8
Codec ID : S_TEXT/UTF8
Codec ID/Info : UTF-8 Plain Text
Duration : 40 min
Bit rate : 105 b/s
Count of elements : 859
Stream size : 30.8 KiB (0%)
Title : ITA
Language : Italian
Default : No
Forced : No

Text #3
ID : 6
Format : UTF-8
Codec ID : S_TEXT/UTF8
Codec ID/Info : UTF-8 Plain Text
Duration : 41 min
Bit rate : 144 b/s
Count of elements : 1099
Stream size : 44.2 KiB (0%)
Title : ENG
Language : English
Default : No
Forced : No

Trackers

http://tracker.leechers-paradise.org:6969/scrape
http://tracker.tntvillage.scambioetico.org:2710/scrape
http://tracker.mg64.net:2710/scrape
http://tracker.coppersurfer.tk:6969/scrape
http://IPv6.leechers-paradise.org:6969/scrape
http://tracker.internetwarriors.net:1337/scrape
http://tracker.tiny-vps.com:6969/scrape
http://tracker.openbittorrent.com/scrape