loading...
loading...






Info

Death Proof


7.1
IMDB: 7.1/10 212,584 votes

Durata: 113 min

Released:

Anno: 31 May 2007

Direttore:

Premi: 6 nominations.

Budget: 25000000$

Incassi: 25037897$

Stato: Released

Paese: USA

Tagline: « Ehi, Pam, ti ricordi quando ho detto che la macchina era a prova di morte? Non dicevo una bugia... questa macchina è al cento per cento a prova di morte, ma per godere di questo vantaggio, tesoro, tu dovresti essere seduta esattamente dove sono io! »

Cast:




Jungle Julia è la DJ più quotata di Austin, in Texas. Le sue migliori amiche sono Arlene e Shanna, con le quali trascorre intere notti a spasso tra i locali della capitale texana, tra un margarita ed uno spinello. Le tre ragazze entrano però nel mirino di Stuntman Mike, uno stuntman ormai in pensione, il cui volto è solcato da una strana e profonda cicatrice, che prova eccitamento sessuale quando uccide ragazze a bordo della sua vettura “a prova di morte”, una Chevrolet Nova SS. Mike le segue al Guero’s, il primo locale che visitano………………….

Trailer


Upload on Youtube

Info File

Complete name : F:\Grindhouse A Prova Di Morte - Death Proof (2007)\Grindhouse A Prova Di Morte - Death Proof (2007).avi
Format : AVI
Format/Info : Audio Video Interleave
File size : 1.76 GiB
Duration : 1h 49mn
Overall bit rate : 2 294 Kbps
Writing application : VirtualDubMod 1.5.4.1 (build 2178/release)
Writing library : VirtualDubMod build 2178/release

Video
ID : 0
Format : MPEG-4 Visual
Format profile : Advanced [email protected]
Format settings, BVOP : Yes
Format settings, QPel : No
Format settings, GMC : No warppoints
Format settings, Matrix : Custom
Codec ID : XVID
Codec ID/Hint : XviD
Duration : 1h 49mn
Bit rate : 1 389 Kbps
Width : 720 pixels
Height : 304 pixels
Display aspect ratio : 2.35:1
Frame rate : 25.000 fps
Color space : YUV
Chroma subsampling : 4:2:0
Bit depth : 8 bits
Scan type : Progressive
Bits/(Pixel*Frame) : 0.254
Stream size : 1.06 GiB (61%)
Writing library : XviD 1.2.1 (UTC 2008-12-04)

Audio #1
ID : 1
Format : AC-3
Format/Info : Audio Coding 3
Mode extension : CM (complete main)
Codec ID : 2000
Duration : 1h 49mn
Bit rate mode : Constant
Bit rate : 448 Kbps
Channel(s) : 6 channels
Channel positions : Front: L C R, Side: L R, LFE
Sampling rate : 48.0 KHz
Bit depth : 16 bits
Stream size : 352 MiB (20%)
Alignment : Aligned on interleaves
Interleave, duration : 96 ms (2.40 video frames)
Interleave, preload duration : 96 ms
Language : Italian

Audio #2
ID : 2
Format : AC-3
Format/Info : Audio Coding 3
Mode extension : CM (complete main)
Codec ID : 2000
Duration : 1h 49mn
Bit rate mode : Constant
Bit rate : 448 Kbps
Channel(s) : 6 channels
Channel positions : Front: L C R, Side: L R, LFE
Sampling rate : 48.0 KHz
Bit depth : 16 bits
Video delay : 8ms
Stream size : 352 MiB (20%)
Alignment : Split accross interleaves
Interleave, duration : 96 ms (2.40 video frames)
Interleave, preload duration : 96 ms
Language : English

Immagini

Grindhouse A Prova Di Morte – Death Proof (2007) Quentin Tarantino, [XviD – Ita Eng Ac3 5.1 – Sub Ita]
Grindhouse A Prova Di Morte – Death Proof (2007) Quentin Tarantino, [XviD – Ita Eng Ac3 5.1 – Sub Ita]
Grindhouse A Prova Di Morte – Death Proof (2007) Quentin Tarantino, [XviD – Ita Eng Ac3 5.1 – Sub Ita]
Grindhouse A Prova Di Morte – Death Proof (2007) Quentin Tarantino, [XviD – Ita Eng Ac3 5.1 – Sub Ita]
Grindhouse A Prova Di Morte – Death Proof (2007) Quentin Tarantino, [XviD – Ita Eng Ac3 5.1 – Sub Ita]
Grindhouse A Prova Di Morte – Death Proof (2007) Quentin Tarantino, [XviD – Ita Eng Ac3 5.1 – Sub Ita]
Grindhouse A Prova Di Morte – Death Proof (2007) Quentin Tarantino, [XviD – Ita Eng Ac3 5.1 – Sub Ita]
Grindhouse A Prova Di Morte – Death Proof (2007) Quentin Tarantino, [XviD – Ita Eng Ac3 5.1 – Sub Ita]
Grindhouse A Prova Di Morte – Death Proof (2007) Quentin Tarantino, [XviD – Ita Eng Ac3 5.1 – Sub Ita]
Grindhouse A Prova Di Morte – Death Proof (2007) Quentin Tarantino, [XviD – Ita Eng Ac3 5.1 – Sub Ita]
Grindhouse A Prova Di Morte – Death Proof (2007) Quentin Tarantino, [XviD – Ita Eng Ac3 5.1 – Sub Ita]
Grindhouse A Prova Di Morte – Death Proof (2007) Quentin Tarantino, [XviD – Ita Eng Ac3 5.1 – Sub Ita]
Grindhouse A Prova Di Morte – Death Proof (2007) Quentin Tarantino, [XviD – Ita Eng Ac3 5.1 – Sub Ita]
Grindhouse A Prova Di Morte – Death Proof (2007) Quentin Tarantino, [XviD – Ita Eng Ac3 5.1 – Sub Ita]
Grindhouse A Prova Di Morte – Death Proof (2007) Quentin Tarantino, [XviD – Ita Eng Ac3 5.1 – Sub Ita]

Trackers

http://tracker.istole.it:80/
http://tracker.publicbt.com:80/
http://open.demonii.com:1337/scrape
http://tracker.tntvillage.scambioetico.org:2710/scrape
http://tracker.coppersurfer.tk:6969/scrape
http://tracker.openbittorrent.com/scrape