Info

user posted image

.: Happy Days (Giorni Felici) è una situation comedy televisiva statunitense di grande popolarità e successo andata in onda in prima visione negli Stati Uniti dal 15 gennaio 1974 al 24 settembre 1984 sulla rete televisiva ABC. La serie, creata da Garry Marshall, presenta una visione idealizzata della vita americana, a cavallo tra gli anni cinquanta e sessanta.
La serie, ambientata a Milwaukee, è incentrata sulle vicende quotidiane della famiglia Cunningham.:.

Nona Stagione
Anno: (1981-1982)
Genere: sit-com

Cast:

Ron Howard: Richie Cunningham (s. 1-7)
Henry Winkler: Arthur “Fonzie” Fonzarelli
Marion Ross: Marion Cunningham
Tom Bosley: Howard Cunningham
Anson Williams: Warren “Potsie” Weber
Donny Most: Ralph Malph (s. 1-7)
Gavan O’Herlihy: Chuck Cunningham (s. 1)
Randolph Roberts: Chuck Cunningham (s. 2)
Erin Moran: Joanie Cunningham
Pat Morita: Matsuo “Arnold” Takahashi (s. 2-3, 10-11)
Al Molinaro: Alfred Delvecchio (s. 4-9)
Scott Baio: Charles “Chachi” Arcola (s. 5-11)
Lynda Goodfriend: Lori Beth Allen (s. 5-9)
Cathy Silvers: Jenny Piccalo (s. 8-10)
Ted McGinley: Roger Phillips (s. 8-11)
Scott Mitchell Bernstein: Melvin Belvin (s.9-10)
Linda Purl: Ashley Pfister (s. 10)
Crystal Bernard: K.C. Cunningham (s.10)
Billy Warlock: Leopold “Flip” Phillips (s. 10)
Suzi Quatro : Leather Tuscadero

Info File

Complete name : 9x16.-.Un.tocco.di.classico..avi
Format : AVI
Format/Info : Audio Video Interleave
File size : 111 MiB
Duration : 23mn 53s
Overall bit rate : 650 Kbps
Writing application : Lavf51.12.1

Video
ID : 0
Format : xvid
Codec ID : xvid
Duration : 23mn 53s
Bit rate : 510 Kbps
Width : 480 pixels
Height : 320 pixels
Display aspect ratio : 3:2
Frame rate : 25.000 fps
Bits/(Pixel*Frame) : 0.133
Stream size : 87.1 MiB (78%)

Audio
ID : 1
Format : MPEG Audio
Format version : Version 1
Format profile : Layer 3
Mode : Joint stereo
Mode extension : MS Stereo
Codec ID : 55
Codec ID/Hint : MP3
Duration : 23mn 53s
Bit rate mode : Constant
Bit rate : 128 Kbps
Channel(s) : 2 channels
Sampling rate : 44.1 KHz
Compression mode : Lossy
Stream size : 21.9 MiB (20%)
Alignment : Aligned on interleaves
Interleave, duration : 26 ms (0.65 video frame)
Interleave, preload duratio : 26 ms

Trackers

http://tracker.tntvillage.scambioetico.org:2710/scrape
http://tracker.publicbt.com:80/
http://open.demonii.com:1337/scrape
http://tracker.coppersurfer.tk:6969/scrape
http://tracker.openbittorrent.com/scrape
http://tracker.istole.it:80/

Torrent correlati

Torrent Name Dimm. Creato Seed Leech
comment icon
450.6 Mb 5 mesi fa 37 3
comment icon
184.61 Mb 2 mesi fa 22 3
comment icon
1.26 Gb 7 mesi fa 1 5
comment icon

Complete name : C:\Users\User\Desktop\Licia Dolce Licia – 01 Si ricomincia.mp4 Format : MPEG-4 Format profile : Base Media Codec ID : isom (isom/iso2/avc1/mp41) File size : 136 MiB Duration : 22 min Overall bit rate mode : Variable Overall bit rate : 834 kb/s Writing application : Lavf55.33.100 Video ID : 1 Format : AVC Format/Info : Advanced Video Codec Format profile : [email protected] Format settings, CABAC : Yes Format settings, ReFrames : 4 frames Codec ID : avc1 Codec ID/Info : Advanced Video Coding Duration : 22 min Bit rate : 700 kb/s Width : 520 pixels Height : 440 pixels Display aspect ratio : 1.182 Frame rate mode : Constant Frame rate : 25.000 FPS Color space : YUV Chroma subsampling : 4:2:0 Bit depth : 8 bits Scan type : Progressive Bits/(Pixel*Frame) : 0.122 Stream size : 114 MiB (84%) Writing library : x264 core 142 r2431 a5831aa Encoding settings : cabac=1 / ref=3 / deblock=1:0:0 / analyse=0x3:0x113 / me=hex / subme=7 / psy=1 / psy_rd=1.00:0.00 / mixed_ref=1 / me_range=8 / chroma_me=1 / trellis=1 / 8x8dct=1 / cqm=0 / deadzone=21,11 / fast_pskip=1 / chroma_qp_offset=-2 / threads=4 / lookahead_threads=1 / sliced_threads=0 / nr=0 / decimate=1 / interlaced=0 / bluray_compat=0 / constrained_intra=0 / bframes=3 / b_pyramid=2 / b_adapt=1 / b_bias=0 / direct=1 / weightb=1 / open_gop=0 / weightp=2 / keyint=250 / keyint_min=25 / scenecut=40 / intra_refresh=0 / rc_lookahead=40 / rc=2pass / mbtree=1 / bitrate=700 / ratetol=1.0 / qcomp=0.60 / qpmin=0 / qpmax=69 / qpstep=4 / cplxblur=20.0 / qblur=0.5 / vbv_maxrate=800 / vbv_bufsize=4000 / nal_hrd=none / filler=0 / ip_ratio=1.40 / aq=1:1.00 Audio ID : 2 Format : AAC Format/Info : Advanced Audio Codec Format profile : LC Codec ID : 40 Duration : 22 min Duration_LastFrame : -15 ms Bit rate mode : Variable Bit rate : 128 kb/s Maximum bit rate : 800 kb/s Channel(s) : 2 channels Channel positions : Front: L R Sampling rate : 44.1 kHz Frame rate : 43.066 FPS (1024 spf) Compression mode : Lossy Stream size : 21.0 MiB (15%) Default : Yes Alternate group : 1

Creato da:   In: Serie Tv
140.63 Mb 9 mesi fa 0 0
comment icon
1.27 Gb 4 mesi fa 26 5