loading...
loading...






Info

user posted image

.: Happy Days (Giorni Felici) è una situation comedy televisiva statunitense di grande popolarità e successo andata in onda in prima visione negli Stati Uniti dal 15 gennaio 1974 al 24 settembre 1984 sulla rete televisiva ABC. La serie, creata da Garry Marshall, presenta una visione idealizzata della vita americana, a cavallo tra gli anni cinquanta e sessanta.
La serie, ambientata a Milwaukee, è incentrata sulle vicende quotidiane della famiglia Cunningham.:.

Nona Stagione
Anno: (1981-1982)
Genere: sit-com

Cast:

Ron Howard: Richie Cunningham (s. 1-7)
Henry Winkler: Arthur “Fonzie” Fonzarelli
Marion Ross: Marion Cunningham
Tom Bosley: Howard Cunningham
Anson Williams: Warren “Potsie” Weber
Donny Most: Ralph Malph (s. 1-7)
Gavan O’Herlihy: Chuck Cunningham (s. 1)
Randolph Roberts: Chuck Cunningham (s. 2)
Erin Moran: Joanie Cunningham
Pat Morita: Matsuo “Arnold” Takahashi (s. 2-3, 10-11)
Al Molinaro: Alfred Delvecchio (s. 4-9)
Scott Baio: Charles “Chachi” Arcola (s. 5-11)
Lynda Goodfriend: Lori Beth Allen (s. 5-9)
Cathy Silvers: Jenny Piccalo (s. 8-10)
Ted McGinley: Roger Phillips (s. 8-11)
Scott Mitchell Bernstein: Melvin Belvin (s.9-10)
Linda Purl: Ashley Pfister (s. 10)
Crystal Bernard: K.C. Cunningham (s.10)
Billy Warlock: Leopold “Flip” Phillips (s. 10)
Suzi Quatro : Leather Tuscadero

Info File

Complete name : 9x16.-.Un.tocco.di.classico..avi
Format : AVI
Format/Info : Audio Video Interleave
File size : 111 MiB
Duration : 23mn 53s
Overall bit rate : 650 Kbps
Writing application : Lavf51.12.1

Video
ID : 0
Format : xvid
Codec ID : xvid
Duration : 23mn 53s
Bit rate : 510 Kbps
Width : 480 pixels
Height : 320 pixels
Display aspect ratio : 3:2
Frame rate : 25.000 fps
Bits/(Pixel*Frame) : 0.133
Stream size : 87.1 MiB (78%)

Audio
ID : 1
Format : MPEG Audio
Format version : Version 1
Format profile : Layer 3
Mode : Joint stereo
Mode extension : MS Stereo
Codec ID : 55
Codec ID/Hint : MP3
Duration : 23mn 53s
Bit rate mode : Constant
Bit rate : 128 Kbps
Channel(s) : 2 channels
Sampling rate : 44.1 KHz
Compression mode : Lossy
Stream size : 21.9 MiB (20%)
Alignment : Aligned on interleaves
Interleave, duration : 26 ms (0.65 video frame)
Interleave, preload duratio : 26 ms

Trackers

http://tracker.istole.it:80/
http://tracker.publicbt.com:80/
http://tracker.tntvillage.scambioetico.org:2710/scrape
http://open.demonii.com:1337/scrape
http://tracker.coppersurfer.tk:6969/scrape
http://tracker.openbittorrent.com/scrape