loading...
loading...






Info


.: Scheda della serie :.
Creatore: Cameron Porsandeh

Cast:
Billy Campbell: Dr. Alan Farragut
Hiroyuki Sanada: Dr. Hiroshi Hatake
Kyra Zagorsky: Dr. Julia Walker
Mark Ghanimé: Maggiore Sergio Balleseros
Jordan Hayes: Dr. Sarah Jordan
Neil Napier: Peter Farragut
Meegwun Fairbrother: Daniel Aerov
Luciana Carro: Anana
Catherine Lemieux: Dr. Doreen Boyle
Jeri Ryan: Constance Sutton
Amber Goldfarb: Jaye

Storia e ambientazione:
Helix è una serie televisiva statunitense di fantascienza del 2014 prodotta per la rete via cavo Syfy. In data 29 marzo 2014 la serie è stata rinnovata per una seconda stagione. Il 16 gennaio 2015 è cominciata la messa in onda della seconda stagione.

Il 29 aprile, 2015, Syfy ha annunciato la cancellazione della serie, a causa del consistente calo di ascolti della seconda stagione.

La prima stagione è stata resa disponibile su Infinity dal 15 luglio 2016.

Trama
La serie è incentrata su un team di scienziati dei centri per la prevenzione e il controllo delle malattie chiamati a raggiungere un centro di ricerca nell’artico per investigare il possibile focolaio di un’epidemia.

Titolo originale Helix
Paese Stati Uniti d’America, Canada
Anno 2014 – 2015
Formato serie TV
Genere drammatico, fantascienza
Stagioni 2
Episodi 26
Durata 40 min (episodio)
Lingua originale inglese

 

Info File

Helix.2x01.San.Jose.ITA.ENG.720p.BDMux.x264-Speranzah.mkv
Format : Matroska
Format version : Version 4 / Version 2
File size : 1.61 GiB
Duration : 38mn 14s
Overall bit rate : 6 021 Kbps
Encoded date : UTC 2016-09-23 17:28:02
Writing application : mkvmerge v7.6.0 ('Garden of Dreams') 64bit built on Feb 8 2015 15:12:28
Writing library : libebml v1.3.1 + libmatroska v1.4.2
DURATION : 00:37:21.492000000
NUMBER_OF_FRAMES : 495
NUMBER_OF_BYTES : 16491
_STATISTICS_WRITING_APP : mkvmerge v7.6.0 ('Garden of Dreams') 64bit built on Feb 8 2015 15:12:28
_STATISTICS_WRITING_DATE_UTC : 2016-09-23 17:28:02
_STATISTICS_TAGS : BPS DURATION NUMBER_OF_FRAMES NUMBER_OF_BYTES

Video
ID : 1
Format : AVC
Format/Info : Advanced Video Codec
Format profile : [email protected]
Format settings, CABAC : Yes
Format settings, ReFrames : 9 frames
Codec ID : V_MPEG4/ISO/AVC
Duration : 38mn 14s
Bit rate : 5 325 Kbps
Width : 1 280 pixels
Height : 720 pixels
Display aspect ratio : 16:9
Frame rate : 25.000 fps
Original frame rate : 23.976 fps
Color space : YUV
Chroma subsampling : 4:2:0
Bit depth : 8 bits
Scan type : Progressive
Bits/(Pixel*Frame) : 0.231
Stream size : 1.42 GiB (88%)
Writing library : x264 core 148 r2638kMod 7599210
Encoding settings : cabac=1 / ref=9 / deblock=1:-3:-3 / analyse=0x3:0x133 / me=umh / subme=10 / psy=1 / fade_compensate=0.00 / psy_rd=1.00:0.00 / mixed_ref=1 / me_range=48 / chroma_me=1 / trellis=2 / 8x8dct=1 / cqm=0 / deadzone=21,11 / fast_pskip=1 / chroma_qp_offset=-2 / threads=12 / lookahead_threads=2 / sliced_threads=0 / nr=0 / decimate=1 / interlaced=0 / bluray_compat=0 / constrained_intra=0 / fgo=0 / bframes=8 / b_pyramid=2 / b_adapt=2 / b_bias=0 / direct=3 / weightb=1 / open_gop=0 / weightp=2 / keyint=250 / keyint_min=23 / scenecut=40 / intra_refresh=0 / rc=crf / mbtree=0 / crf=16.0000 / qcomp=0.60 / qpmin=0 / qpmax=69 / qpstep=4 / ip_ratio=1.30 / pb_ratio=1.20 / aq=3:0.75
Language : English
Default : Yes
Forced : No
DURATION : 00:38:14.400000000
NUMBER_OF_FRAMES : 57360
NUMBER_OF_BYTES : 1560991602
_STATISTICS_WRITING_APP : mkvmerge v7.6.0 ('Garden of Dreams') 64bit built on Feb 8 2015 15:12:28
_STATISTICS_WRITING_DATE_UTC : 2016-09-23 17:28:02
_STATISTICS_TAGS : BPS DURATION NUMBER_OF_FRAMES NUMBER_OF_BYTES

Audio #1
ID : 2
Format : AC-3
Format/Info : Audio Coding 3
Mode extension : CM (complete main)
Codec ID : A_AC3
Duration : 38mn 14s
Bit rate mode : Constant
Bit rate : 192 Kbps
Channel(s) : 2 channels
Channel positions : Front: L R
Sampling rate : 48.0 KHz
Bit depth : 16 bits
Compression mode : Lossy
Stream size : 52.5 MiB (3%)
Title : ITA
Language : Italian
Default : Yes
Forced : Yes

Audio #2
ID : 3
Format : AC-3
Format/Info : Audio Coding 3
Mode extension : CM (complete main)
Codec ID : A_AC3
Duration : 38mn 14s
Bit rate mode : Constant
Bit rate : 384 Kbps
Channel(s) : 6 channels
Channel positions : Front: L C R, Side: L R, LFE
Sampling rate : 48.0 KHz
Bit depth : 16 bits
Compression mode : Lossy
Stream size : 105 MiB (6%)
Title : ENG
Language : English
Default : No
Forced : No

Text #1
ID : 4
Format : UTF-8
Codec ID : S_TEXT/UTF8
Codec ID/Info : UTF-8 Plain Text
Title : ITA - Forced
Language : Italian
Default : Yes
Forced : Yes

Text #2
ID : 5
Format : UTF-8
Codec ID : S_TEXT/UTF8
Codec ID/Info : UTF-8 Plain Text
Language : Italian
Default : No
Forced : No

Text #3
ID : 6
Format : UTF-8
Codec ID : S_TEXT/UTF8
Codec ID/Info : UTF-8 Plain Text
Language : English
Default : No
Forced : No

Text #4
ID : 7
Format : UTF-8
Codec ID : S_TEXT/UTF8
Codec ID/Info : UTF-8 Plain Text
Title : SDH
Language : English
Default : No
Forced : No

Trackers

http://tracker.istole.it:80/
http://tracker.publicbt.com:80/
http://tracker.tntvillage.scambioetico.org:2710/scrape
http://open.demonii.com:1337/scrape
http://tracker.coppersurfer.tk:6969/scrape
http://tracker.openbittorrent.com/scrape