Herbie Mann – At The Village Gate (1964)  (222.52 Mb)

Likes(1)Dislikes(0)
seeders: 11
leechers: 0


loading...
loading...






Info

user posted image

user posted image

DATI ALBUM

Artist: Herbie Mann
Title Of Album: At The Village Gate
Years: 1964 Remastered 2001
Genres: Jazz
Source: CD
Playing Time: 38:58
Total Size: 222,12 MB
Quality: FLAC+Cue+Log+Info+M3u8+Cover[Front Back CD]
Bitrate: Lossless

 

LISTA CANZONI

1. Herbie Mann – Comin’ Home Baby [08:39]
2. Herbie Mann – Summertime [10:23]
3. Herbie Mann – It Ain’t Necessarily So [19:55]

Personnel

Herbie Mann – flutes
Hagood Hardy – vibraharp
Ahmed Abdul-Malik – bass
Ray Mantilla – conga and percussion
Chief Bey – African drum and percussion
Rudy Collins – drums
Ben Tucker – additional bass (and solo) on “Comin’ Home”
Willis Conover – liner notes

Recorded live at New York’s Village Gate club in 1964

Recensione

At Village Gate è l’album che per primo portò Herbie Mann, ad una diffusa attenzione popolare, grazie all’inserimento di “Comin ‘Home Baby”, che divenne ben presto una delle canzoni standard del flautista.
L’album della durata di quasi 40 minuti, presenta solamente tre tracce, con una versione epica di 20 minuti di “It ain’t Necessabily So” prendendo la totalità del secondo lato del vinile originale.
Il clou, però, è una versione mozzafiato di “Summertime”, Mann trasforma lo standard di Gershwin in un jazz bossa nova che dispone di ua glorioso assolo esteso di Mann sopra un ritmo beat scandito dalle congas.
Una versione, a suo modo rivelatrice come già fu fatto da Miles Davis.
Tutto da ascoltare.
AllMusic ha assegnato all’album 4½ stelle.
At The Village Gate ha raggiunto la posizione 30 della classifica Billboard 200.

Info File

Exact Audio Copy V1.0 beta 3 from 29. August 2011

EAC extraction logfile from 13. September 2016, 9:22

Herbie Mann / At the Village Gate

Used drive : HL-DT-STDVDRAM GP65NW60 Adapter: 0 ID: 0

Read mode : Secure
Utilize accurate stream : Yes
Defeat audio cache : Yes
Make use of C2 pointers : No

Read offset correction : 6
Overread into Lead-In and Lead-Out : No
Fill up missing offset samples with silence : Yes
Delete leading and trailing silent blocks : No
Null samples used in CRC calculations : Yes
Used interface : Native Win32 interface for Win NT & 2000
Gap handling : Appended to previous track

Used output format : User Defined Encoder
Selected bitrate : 768 kBit/s
Quality : High
Add ID3 tag : No
Command line compressor : C:\Program Files (x86)\Exact Audio Copy\FLAC\FLAC.EXE
Additional command line options : -6 -V -T "ARTIST=%artist%" -T "TITLE=%title%" -T "ALBUM=%albumtitle%" -T "DATE=%year%" -T "TRACKNUMBER=%tracknr%" -T "GENRE=%genre%" -T "COMMENT=%comment%" -T "BAND=%albuminterpret%" -T "ALBUMARTIST=%albuminterpret%" -T "COMPOSER=%composer%" %haslyrics%--tag-from-file=LYRICS="%lyricsfile%"%haslyrics% -T "DISCNUMBER=%cdnumber%" -T "TOTALDISCS=%totalcds%" -T "TOTALTRACKS=%numtracks%" %hascover%--picture="%coverfile%"%hascover% %source% -o %dest%

TOC of the extracted CD

Track | Start | Length | Start sector | End sector
---------------------------------------------------------
1 | 0:00.00 | 8:39.00 | 0 | 38924
2 | 8:39.00 | 10:23.70 | 38925 | 85719
3 | 19:02.70 | 19:55.47 | 85720 | 175391

Track 1

Filename C:\FLAC\Herbie Mann - At The Village Gate\[1] Comin' Home Baby - Herbie Mann.wav

Pre-gap length 0:00:02.00

Peak level 79.6 %
Extraction speed 1.3 X
Track quality 100.0 %
Test CRC BABB9A86
Copy CRC BABB9A86
Accurately ripped (confidence 1) [B4F66293] (AR v2)
Copy OK

Track 2

Filename C:\FLAC\Herbie Mann - At The Village Gate\[2] Summertime - Herbie Mann.wav

Pre-gap length 0:00:02.68

Peak level 88.6 %
Extraction speed 1.6 X
Track quality 100.0 %
Test CRC A30C2F6C
Copy CRC A30C2F6C
Accurately ripped (confidence 1) [DB10442A] (AR v2)
Copy OK

Track 3

Filename C:\FLAC\Herbie Mann - At The Village Gate\[3] It Ain't Necessarily So - Herbie Mann.wav

Pre-gap length 0:00:02.68

Peak level 100.0 %
Extraction speed 2.1 X
Track quality 100.0 %
Test CRC 82DEE372
Copy CRC 82DEE372
Accurately ripped (confidence 1) [F57BD2EF] (AR v2)
Copy OK

All tracks accurately ripped

No errors occurred

End of status report

==== Log checksum 472145A6FB52895C3E2436321890F6C38503AB4195A65C2C02F4C89C86F4D348 ====

Trackers

http://tracker.istole.it:80/
http://tracker.publicbt.com:80/
http://tracker.tntvillage.scambioetico.org:2710/scrape
http://open.demonii.com:1337/scrape
http://tracker.coppersurfer.tk:6969/scrape
http://tracker.openbittorrent.com/scrape