loading...
loading...






Info

user posted image

.: Scheda del Film :.

Titolo originale: Medici: Masters of Florence
Paese: Regno Unito, Italia
Anno: 2016 – in produzione
Formato: serie TV
Genere: drammatico, storico
Stagioni: 1
Episodi: 8
Durata: 55 min (episodio)
Lingua originale: inglese

Interpreti e personaggi

Richard Madden: Cosimo de’ Medici
Dustin Hoffman: Giovanni di Bicci de’ Medici
Stuart Martin: Lorenzo de’ Medici “il Vecchio”
Annabel Scholey: Contessina de’ Bardi
Guido Caprino: Marco Bello
Alessandro Sperduti: Piero il Gottoso
Ken Bones: Ugo Bencini
Lex Shrapnel: Rinaldo degli Albizzi
Brian Cox: Bernardo Guadagni
Alessandro Preziosi: Filippo Brunelleschi
Daniel Caltagirone: Andrea de’ Pazzi
Ben Starr: Donatello
Sarah Felberbaum: Maddalena
Frances Barber: Piccarda Bueri
Miriam Leone: Bianca
Valentina Bellè: Lucrezia Tornabuoni
Eugenio Franceschini: Ormanno Albizzi
Valentina Cervi: Alessandra Albizzi
Steven Waddington: Cardinal Baldassarre Cossa
David Bradley: Giovanni de’ Bardi
David Bamber: Papa Eugenio IV
Andrea Bosca: Sanuto
Fortunato Cerlino: Mastro Bredani
Valentina Carnelutti: Marta Tarugi
Andy Luotto: Sandro Tarugi
Michael Schermi: Ricciardo
Tatjana Nardone: Emilia
Giorgio Caputo: Federigo Malavolti
Anthony Howell: Francesco Sforza
Brando Leon Rustici: Vieri
Marco Quaglia: Tancredi
Andrea Bruschi: Andreas Di Cecco
Gerolamo Alchieri: Maso Albizzi
Matthew T. Reynolds: Cardinal Bellini
Fabrizio Matteini: Cardinal Mosca
Douglas Dean: Bruno Aquilani

Doppiatori italiani

Lino Guanciale: Cosimo de’ Medici
Stefano De Sando: Giovanni di Bicci de’ Medici
Fabio Boccanera: Lorenzo de’ Medici “il Vecchio”
Chiara Colizzi: Contessina de’ Bardi
Angelo Nicotra: Ugo Bencini
Alessio Cigliano: Rinaldo degli Albizzi
Bruno Alessandro: Bernardo Guadagni
Francesco Prando: Andrea de’ Pazzi
Marco Vivio: Donatello
Emanuela Rossi: Piccarda Bueri
Roberto Pedicini: Cardinal Baldassarre Cossa
Franco Zucca: Giovanni de’ Bardi
Ennio Coltorti: Papa Eugenio IV
Stefano Alessandroni: Francesco Sforza
Marco Gargiulo: Bruno Aquilani

.: La Serie :.

I Medici (Medici: Masters of Florence) è una serie televisiva anglo-italiana, creata da Frank Spotnitz e Nicholas Meyer, che descrive l’ascesa della famiglia de’ Medici, casata aristocratica a capo della città di Firenze durante il Rinascimento.

È diffusa in Italia e in prima visione mondiale da Rai 1 dal 18 ottobre 2016 e tutti gli 8 episodi sono anche trasmessi nello standard Ultra HD sul canale Rai 4K al canale 210 della piattaforma satellitare gratuita tivùsat: prima volta nella storia della televisione italiana che una serie televisiva viene trasmessa in Ultra HD. Lo stesso giorno della messa in onda mondiale e prima di trasmetterla la sera stessa, la Rai ha pubblicato in anteprima sul portale Rai Play i primi cinque minuti dell’episodio pilota della serie.

.: Trama :.

La serie, ambientata nel XV secolo, si incentra sulla storia della famiglia fiorentina dei Medici: protagonista è Cosimo de’ Medici, che nel 1434 fu eletto gonfaloniere della città di Firenze, andando a costituire una signoria (anche se solamente de facto).

Info File

General
Unique ID : 281131134281937763117315021119920754568 (0xD37FE3113514C1C89A1C26CC96334F88)
Complete name : ..\I_Medici_S01_Ep.3-4_DTTRip_H265_1080p_ITA.mkv
Format : Matroska
Format version : Version 4 / Version 2
File size : 1.30 GiB
Duration : 1 h 42 min
Overall bit rate : 1 820 kb/s
Writing application : Lavf56.36.100
Writing library : Lavf56.36.100 / Lavf56.36.100

Video
ID : 1
Format : HEVC
Format/Info : High Efficiency Video Coding
Format profile : [email protected]@Main
Codec ID : V_MPEGH/ISO/HEVC
Duration : 1 h 42 min
Bit rate : 1 336 kb/s
Width : 1 920 pixels
Height : 1 080 pixels
Display aspect ratio : 16:9
Frame rate mode : Constant
Frame rate : 25.000 FPS
Original frame rate : 50.000 FPS
Color space : YUV
Chroma subsampling : 4:2:0
Bit depth : 8 bits
Bits/(Pixel*Frame) : 0.026
Stream size : 975 MiB (73%)
Writing library : x265 1.4+285-1924c460d130:[Windows][GCC 4.8.1][64 bit]
Encoding settings : wpp / ctu=64 / tu-intra-depth=1 / tu-inter-depth=1 / me=3 / subme=5 / merange=16 / no-rect / no-amp / max-merge=2 / temporal-mvp / early-skip / no-fast-cbf / rdpenalty=0 / no-tskip / tskip-fast / strong-intra-smoothing / no-lossless / no-cu-lossless / no-constrained-intra / no-fast-intra / open-gop / interlace=0 / keyint=250 / min-keyint=25 / scenecut=40 / rc-lookahead=40 / bframes=3 / bframe-bias=0 / b-adapt=1 / ref=3 / weightp / weightb / aq-mode=2 / aq-strength=1.00 / cbqpoffs=0 / crqpoffs=0 / rd=3 / psy-rd=1.00 / psy-rdoq=0.00 / signhide / lft / sao / no-sao-non-deblock / b-pyramid / cutree / rc=2 / pass / bitrate=2739 / ratetol=1.0 / qcomp=0.60 / qpmin=0 / qpmax=51 / qpstep=4 / cplxblur=20.0 / qblur=0.5 / ipratio=1.40 / pbratio=1.30
Default : Yes
Forced : No

Audio
ID : 2
Format : AC-3
Format/Info : Audio Coding 3
Mode extension : CM (complete main)
Format settings, Endianness : Big
Codec ID : A_AC3
Duration : 1 h 42 min
Bit rate mode : Constant
Bit rate : 448 kb/s
Channel(s) : 2 channels
Channel positions : Front: L R
Sampling rate : 48.0 kHz
Frame rate : 31.250 FPS (1536 spf)
Compression mode : Lossy
Delay relative to video : 24 ms
Stream size : 327 MiB (25%)
Language : Italian
Default : Yes
Forced : No

Trackers

http://tracker.istole.it:80/
http://tracker.publicbt.com:80/
http://tracker.tntvillage.scambioetico.org:2710/scrape
http://open.demonii.com:1337/scrape
http://tracker.openbittorrent.com/scrape
http://tracker.coppersurfer.tk:6969/scrape