Info

Near Dark


7.0
IMDB: 7.0/10 26,767 votes

Durata: 94 min

Released:

Anno: N/A

Direttore:

Premi: 1 win & 8 nominations.

Budget: 5000000$

Stato: Released

Paese: USA

Cast:




Quella che si preannunciava come una piacevole avventura per il giovane Caleb, l’incontro con l’affascinante quanto misteriosa Mae, si rivela ben presto un terribile incubo: Mae è infatti una vampira che vive insieme a una strana famiglia sopra un camper a bordo del quale viaggia attraverso l’America. Caleb viene rapito e parzialmente trasformato in vampiro ed è costretto ad assistere a una serie di orrori dai quali riuscirà a sfuggire grazie all’amore di Mae. Opera prima della Bigelow che ha modo di esprimere tutto il suo talento violento e visionario. Atroce e terribile ritratto della condizione del “diverso”: un film sofisticato ed efficace.

Trailer


Upload on Youtube

Info File

Video
ID: 1
Format: AVC
Format/Info: Advanced Video Codec
Format profile: [email protected]
Format settings, CABAC: Yes
Format settings, ReFrames: 8 frames
Codec ID: V_MPEG4/ISO/AVC
Duration: 1h 34mn
Bit rate: 5 875 Kbps
Width: 1 280 pixels
Height: 690 pixels
Display aspect ratio: 1.85:1
Frame rate mode: Constant
Frame rate: 23.976 fps
Color space: YUV
Chroma subsampling: 4:2:0
Bit depth: 8 bits
Scan type: Progressive
Bits/(Pixel*Frame): 0.277
Stream size: 3.78 GiB (88%)
Title: Il buio si avvicina (Kathryn Bigelow, 1987)
Writing library: x264 core 113 r1884 7313bb5
Encoding settings: cabac=1 / ref=8 / deblock=1:-2:-2 / analyse=0x3:0x133 / me=umh / subme=9 / psy=1 /
psy_rd=1.20:0.20 / mixed_ref=1 / me_range=16 / chroma_me=1 / trellis=2 / 8x8dct=1 / cqm=0 / deadzone=21,11 /
fast_pskip=1 / chroma_qp_offset=-3 / threads=12 / sliced_threads=0 / nr=0 / decimate=0 / interlaced=0 /
constrained_intra=0 / bframes=3 / b_pyramid=2 / b_adapt=2 / b_bias=0 / direct=3 / weightb=1 / open_gop=0 /
weightp=2 / keyint=250 / keyint_min=2 / scenecut=40 / intra_refresh=0 / rc_lookahead=60 / rc=2pass / mbtree=1 /
bitrate=5875 / ratetol=1.0 / qcomp=0.60 / qpmin=10 / qpmax=69 / qpstep=4 / cplxblur=20.0 / qblur=0.5 /
vbv_maxrate=38000 / vbv_bufsize=38000 / nal_hrd=none / ip_ratio=1.40 / aq=1:1.00
Language: English
Default: No
Forced: No

Audio #1
ID: 2
Format: AC-3
Format/Info: Audio Coding 3
Mode extension: CM (complete main)
Format settings, Endianness: Big
Codec ID: A_AC3
Duration: 1h 34mn
Bit rate mode: Constant
Bit rate: 192 Kbps
Channel count: 2 channels
Channel positions: Front: L R
Sampling rate: 48.0 KHz
Bit depth: 16 bits
Compression mode: Lossy
Stream size: 129 MiB (3%)
Title: Italiano AC3 2.0 192Kbps
Language: Italian
Default: Yes
Forced: No

Immagini

Il buio si avvicina (1987), [BDmux 720p – H264 – Ita Eng Ac3 – MultiSub]
Il buio si avvicina (1987), [BDmux 720p – H264 – Ita Eng Ac3 – MultiSub]
Il buio si avvicina (1987), [BDmux 720p – H264 – Ita Eng Ac3 – MultiSub]
Il buio si avvicina (1987), [BDmux 720p – H264 – Ita Eng Ac3 – MultiSub]

Trackers

http://tracker.publicbt.com:80/
http://tracker.istole.it:80/
http://tracker.tntvillage.scambioetico.org:2710/scrape
http://open.demonii.com:1337/scrape
http://tracker.coppersurfer.tk:6969/scrape
http://tracker.openbittorrent.com/scrape