Info

Day of the Dead


7.2
IMDB: 7.2/10 51,761 votes

Durata: 96 min

Released:

Anno: 19 Jul 1985

Direttore:

Premi: 2 wins.

Budget: 3500000$

Incassi: 34000000$

Stato: Released

Paese: USA

Cast:




I morti viventi dominano ormai la terra. Un ridottissimo gruppo di umani, composto da scienziati e militari, si è rifugiato in un bunker sotterraneo per cercare di sfuggire al terribile flagello. E mentre la sopravvivenza si fa più difficile, la ricerca per riuscire ad aver ragione sugli zombi non si arresta, l’unica speranza sembra risiedere non nel curarli, ma nell’addomesticarli. Così, nelle profondità della terra, il Dottor Logan compie estremi esperimenti sui morti viventi, per cercare di comprendere i meccanismi della loro “nuova” vita e, nel frattempo, accudisce con cura il suo più grande successo: Bub, uno zombie oramai abituato alla cattività che sembra essere riuscito a dominare i suoi istinti cannibalistici. Ma ben presto i già precari rapporti tra gli scienziati e i militari si logoreranno irrimediabilmente, mentre fuori dalle barriere i morti viventi spingono per entrare……………..

Trailer


Upload on Youtube

Info File

Video
ID : 0
Format : MPEG-4 Visual
Format profile : Advanced Simple@L5
Format settings, BVOP : Yes
Format settings, QPel : No
Format settings, GMC : No warppoints
Format settings, Matrix : Custom
Codec ID : XVID
Codec ID/Hint : XviD
Duration : 1h 40mn
Bit rate : 1 709 Kbps
Width : 720 pixels
Height : 416 pixels
Display aspect ratio : 16:9
Frame rate : 25.000 fps
Color space : YUV
Chroma subsampling : 4:2:0
Bit depth : 8 bits
Scan type : Progressive
Bits/(Pixel*Frame) : 0.228
Stream size : 1.20 GiB (72%)
Writing library : XviD 1.2.1 (UTC 2008-12-04)

Audio #1
ID : 1
Format : AC-3
Format/Info : Audio Coding 3
Mode extension : CM (complete main)
Codec ID : 2000
Duration : 1h 40mn
Bit rate mode : Constant
Bit rate : 448 Kbps
Channel(s) : 6 channels
Channel positions : Front: L C R, Side: L R, LFE
Sampling rate : 48.0 KHz
Bit depth : 16 bits
Stream size : 323 MiB (19%)
Alignment : Aligned on interleaves
Interleave, duration : 96 ms (2.40 video frames)
Interleave, preload duration : 96 ms
Language : Italian

Immagini

Il Giorno Degli Zombi – Day Of The Dead (1985) George A. Romero + Bonus disk, [XviD]
Il Giorno Degli Zombi – Day Of The Dead (1985) George A. Romero + Bonus disk, [XviD]
Il Giorno Degli Zombi – Day Of The Dead (1985) George A. Romero + Bonus disk, [XviD]
Il Giorno Degli Zombi – Day Of The Dead (1985) George A. Romero + Bonus disk, [XviD]
Il Giorno Degli Zombi – Day Of The Dead (1985) George A. Romero + Bonus disk, [XviD]

Trackers

http://tracker.istole.it:80/
http://tracker.publicbt.com:80/
http://tracker.tntvillage.scambioetico.org:2710/scrape
http://open.demonii.com:1337/scrape
http://tracker.coppersurfer.tk:6969/scrape
http://tracker.openbittorrent.com/scrape