loading...
loading...






Info

National Treasure: Book of Secrets


6.5
IMDB: 6.5/10 184,820 votes

Durata: 124 min

Released:

Anno: 21 Dec 2007

Direttore:

Premi: 1 win & 5 nominations.

Budget: 130000000$

Incassi: 457363168$

Stato: Released

Paese: USA

Cast:




Ben Gates torna in azione: stavolta c’è da difendere l’onore degli avi che vengono accusati di aver cospirato contro Abramo Lincoln. Aiutato da tutta la famiglia (stavolta c’è pure mamma), il cacciatore di tesori girerà il mondo alla ricerca del modo di sbrogliare una matassa che, passo dopo passo, si rivelerà sempre più intricata e foriera di sensazionali sorprese e colpi di scena…

Trailer


Upload on Youtube

Info File

ENG Sub PirateMKV.mkv
Format : Matroska
Format version : Version 4 / Version 2
File size : 3.97 GiB
Duration : 2h 4mn
Overall bit rate : 4 567 Kbps
Movie name : Il mistero delle pagine perdute (2007) - PirateMKV
Encoded date : UTC 2016-06-21 13:51:18
Writing application : mkvmerge v9.1.0 ('Little Earthquakes') 64bit
Writing library : libebml v1.3.3 libmatroska v1.4.4 / Lavf57.38.100
Copyright : Encoded by PirateMKV

Video
ID : 1
Format : HEVC
Format/Info : High Efficiency Video Coding
Format profile : [email protected]@Main
Codec ID : V_MPEGH/ISO/HEVC
Duration : 2h 4mn
Bit rate : 3 284 Kbps
Width : 1 280 pixels
Height : 534 pixels
Display aspect ratio : 2.40:1
Original display aspect ratio : 2.40:1
Frame rate mode : Constant
Frame rate : 23.976 (24000/1001) fps
Color space : YUV
Chroma subsampling : 4:2:0
Bit depth : 8 bits
Bits/(Pixel*Frame) : 0.200
Stream size : 2.86 GiB (72%)
Writing library : x265 1.9:[Windows][GCC 5.2.0][64 bit] 8bit
Encoding settings : wpp / ctu=64 / min-cu-size=8 / max-tu-size=32 / tu-intra-depth=3 / tu-inter-depth=3 / me=2 / subme=4 / merange=57 / no-rect / no-amp / max-merge=3 / temporal-mvp / no-early-skip / rdpenalty=0 / no-tskip / no-tskip-fast / strong-intra-smoothing / no-lossless / no-cu-lossless / no-constrained-intra / fast-intra / open-gop / no-temporal-layers / interlace=0 / keyint=250 / min-keyint=23 / scenecut=40 / rc-lookahead=40 / lookahead-slices=0 / bframes=8 / bframe-bias=0 / b-adapt=2 / ref=5 / limit-refs=3 / limit-modes / weightp / weightb / aq-mode=3 / qg-size=32 / aq-strength=2.00 / cbqpoffs=0 / crqpoffs=0 / rd=4 / psy-rd=1.00 / rdoq-level=0 / psy-rdoq=0.00 / signhide / deblock=-1:-1 / sao / no-sao-non-deblock / b-pyramid / no-cutree / no-intra-refresh / rc=crf / crf=21.4 / qcomp=0.60 / qpmin=0 / qpmax=51 / qpstep=4 / vbv-maxrate=12000 / vbv-bufsize=12000 / crf-max=0.0 / ipratio=1.40 / pbratio=1.30
Language : English
Default : Yes
Forced : No
Color range : Limited
Matrix coefficients : BT.709

Audio #1
ID : 2
Format : AC-3
Format/Info : Audio Coding 3
Mode extension : CM (complete main)
Format settings, Endianness : Big
Codec ID : A_AC3
Duration : 2h 4mn
Bit rate mode : Constant
Bit rate : 640 Kbps
Channel(s) : 6 channels
Channel positions : Front: L C R, Side: L R, LFE
Sampling rate : 48.0 KHz
Frame rate : 31.250 fps (1536 spf)
Compression mode : Lossy
Stream size : 570 MiB (14%)
Title : AC3 5.1
Language : Italian
Default : Yes
Forced : No

Audio #2
ID : 3
Format : AC-3
Format/Info : Audio Coding 3
Mode extension : CM (complete main)
Format settings, Endianness : Big
Codec ID : A_AC3
Duration : 2h 4mn
Bit rate mode : Constant
Bit rate : 640 Kbps
Channel(s) : 6 channels
Channel positions : Front: L C R, Side: L R, LFE
Sampling rate : 48.0 KHz
Frame rate : 31.250 fps (1536 spf)
Compression mode : Lossy
Stream size : 570 MiB (14%)
Title : AC3 5.1
Language : English
Default : No
Forced : No

Text #1
ID : 4
Format : UTF-8
Codec ID : S_TEXT/UTF8
Codec ID/Info : UTF-8 Plain Text
Duration : 1h 57mn
Bit rate : 0 bps
Count of elements : 28
Stream size : 806 Bytes (0%)
Title : Forced
Language : Italian
Default : Yes
Forced : Yes

Text #2
ID : 5
Format : UTF-8
Codec ID : S_TEXT/UTF8
Codec ID/Info : UTF-8 Plain Text
Duration : 1h 57mn
Bit rate : 64 bps
Count of elements : 1479
Stream size : 56.0 KiB (0%)
Title : Normal
Language : Italian
Default : No
Forced : No

Text #3
ID : 6
Format : UTF-8
Codec ID : S_TEXT/UTF8
Codec ID/Info : UTF-8 Plain Text
Duration : 1h 55mn
Bit rate : 66 bps
Count of elements : 1453
Stream size : 56.2 KiB (0%)
Title : Normal
Language : English
Default : No
Forced : No

Text #4
ID : 7
Format : UTF-8
Codec ID : S_TEXT/UTF8
Codec ID/Info : UTF-8 Plain Text
Duration : 1h 56mn
Bit rate : 69 bps
Count of elements : 1595
Stream size : 59.6 KiB (0%)
Title : SDH
Language : English
Default : No
Forced : No

Menu
00:00:00.000 : en:00:00:00.000
00:04:59.341 : en:00:04:59.341
00:08:27.215 : en:00:08:27.215
00:16:55.723 : en:00:16:55.723
00:22:01.946 : en:00:22:01.946
00:26:03.395 : en:00:26:03.395
00:36:47.038 : en:00:36:47.038
00:43:02.914 : en:00:43:02.914
00:50:14.011 : en:00:50:14.011
00:55:27.908 : en:00:55:27.908
01:00:01.389 : en:01:00:01.389
01:11:22.987 : en:01:11:22.987
01:20:14.018 : en:01:20:14.018
01:24:42.744 : en:01:24:42.744
01:30:41.269 : en:01:30:41.269
01:40:07.335 : en:01:40:07.335
01:47:17.890 : en:01:47:17.890
01:57:20.533 : en:01:57:20.533

Immagini

Il mistero delle pagine perdute (2007), [BDrip 720p – H265 – Ita Eng Ac3 5.1 – Sub Ita Eng]
Il mistero delle pagine perdute (2007), [BDrip 720p – H265 – Ita Eng Ac3 5.1 – Sub Ita Eng]
Il mistero delle pagine perdute (2007), [BDrip 720p – H265 – Ita Eng Ac3 5.1 – Sub Ita Eng]
Il mistero delle pagine perdute (2007), [BDrip 720p – H265 – Ita Eng Ac3 5.1 – Sub Ita Eng]
Il mistero delle pagine perdute (2007), [BDrip 720p – H265 – Ita Eng Ac3 5.1 – Sub Ita Eng]
Il mistero delle pagine perdute (2007), [BDrip 720p – H265 – Ita Eng Ac3 5.1 – Sub Ita Eng]
Il mistero delle pagine perdute (2007), [BDrip 720p – H265 – Ita Eng Ac3 5.1 – Sub Ita Eng]
Il mistero delle pagine perdute (2007), [BDrip 720p – H265 – Ita Eng Ac3 5.1 – Sub Ita Eng]
Il mistero delle pagine perdute (2007), [BDrip 720p – H265 – Ita Eng Ac3 5.1 – Sub Ita Eng]
Il mistero delle pagine perdute (2007), [BDrip 720p – H265 – Ita Eng Ac3 5.1 – Sub Ita Eng]
Il mistero delle pagine perdute (2007), [BDrip 720p – H265 – Ita Eng Ac3 5.1 – Sub Ita Eng]
Il mistero delle pagine perdute (2007), [BDrip 720p – H265 – Ita Eng Ac3 5.1 – Sub Ita Eng]

Trackers

http://tracker.istole.it:80/
http://tracker.publicbt.com:80/
http://tracker.tntvillage.scambioetico.org:2710/scrape
http://open.demonii.com:1337/scrape
http://tracker.coppersurfer.tk:6969/scrape
http://tracker.openbittorrent.com/scrape