loading...
loading...






Info

The Darjeeling Limited


7.2
IMDB: 7.2/10 140,739 votes

Durata: 91 min

Released:

Anno: 26 Oct 2007

Direttore:

Premi: 4 wins & 3 nominations.

Budget: 16000000$

Incassi: 24377151$

Stato: Released

Paese: USA

Cast:




Tre fratelli che non si parlano da un anno pianificano un viaggio in treno in India, con lo scopo di ritrovare se stessi e il legame reciproco che avevano un tempo.Circa un anno dopo la morte del loro padre e dopo che, apparentemente, hanno deciso di non comunicare più tra loro, Francis, il maggiore, riunisce i diversi fratelli dopo un incidente motociclistico quasi mortale, che lo ha lasciato avvolto da una maschera di bende. Sostenendo che i suoi fratelli sono stati la prima cosa a cui ha pensato quando è tornato cosciente dopo l’incidente, Francis ha organizzato un itinerario accurato e pianificato rigidamente, a bordo di un treno speciale, il Darjeeling Limited, ideato appositamente per provocare nei fratelli una rinascita spirituale che li unisse o che almeno li avvicinasse.

Trailer


Upload on Youtube

Info File

Complete name: Il treno per il darjeeling (2007) - BDmux 720p x264 - Ita Ac3 Eng Dts - Multisub - Orgazmo.mkv
Format: Matroska
Format version: Version 4 / Version 2
File size: 4.65 GiB
Duration: 1h 31mn
Overall bit rate: 7 257 Kbps
Movie name: Il treno per il Darjeeling (Wes Anderson, 2007) - Orgazmo
Encoded date: UTC 2014-06-03 11:45:02
Writing application: mkvmerge v6.2.0 ('Promised Land') built on Apr 28 2013 18:50:30
Writing library: libebml v1.3.0 + libmatroska v1.4.0

Video
ID: 1
Format: AVC
Format/Info: Advanced Video Codec
Format profile: [email protected]
Format settings, CABAC: Yes
Format settings, ReFrames: 8 frames
Codec ID: V_MPEG4/ISO/AVC
Duration: 1h 31mn
Bit rate: 5 297 Kbps
Width: 1 280 pixels
Height: 534 pixels
Display aspect ratio: 2.40:1
Frame rate mode: Constant
Frame rate: 23.976 fps
Color space: YUV
Chroma subsampling: 4:2:0
Bit depth: 8 bits
Scan type: Progressive
Bits/(Pixel*Frame): 0.323
Stream size: 3.30 GiB (71%)
Title: Il treno per il Darjeeling (Wes Anderson, 2007)
Writing library: x264 core 104 r1703 cd21d05
Encoding settings: cabac=1 / ref=8 / deblock=1:-3:-3 / analyse=0x3:0x113 / me=umh /
subme=9 / psy=1 / psy_rd=1.05:0.10 / mixed_ref=1 / me_range=32 / chroma_me=1 / trellis=2 /
8x8dct=1 / cqm=0 / deadzone=21,11 / fast_pskip=0 / chroma_qp_offset=-2 / threads=12 /
sliced_threads=0 / nr=0 / decimate=1 / interlaced=0 / constrained_intra=0 / bframes=5 /
b_pyramid=2 / b_adapt=2 / b_bias=0 / direct=3 / weightb=1 / open_gop=0 / weightp=2 /
keyint=250 / keyint_min=23 / scenecut=40 / intra_refresh=0 / rc_lookahead=60 / rc=2pass /
mbtree=1 / bitrate=5297 / ratetol=1.0 / qcomp=0.60 / qpmin=10 / qpmax=51 / qpstep=4 /
cplxblur=20.0 / qblur=0.5 / vbv_maxrate=50000 / vbv_bufsize=50000 / ip_ratio=1.40 /
aq=1:0.60 / nal_hrd=none
Language: English
Default: Yes
Forced: No

Audio #1
ID: 2
Format: DTS
Format/Info: Digital Theater Systems
Mode: 16
Format settings, Endianness: Big
Codec ID: A_DTS
Duration: 1h 31mn
Bit rate mode: Constant
Bit rate: 1 509 Kbps
Channel count: 6 channels
Channel positions: Front: L C R, Side: L R, LFE
Sampling rate: 48.0 KHz
Bit depth: 24 bits
Compression mode: Lossy
Stream size: 991 MiB (21%)
Title: English - DTS HDMA 5.1 1509kbps
Language: English
Default: No
Forced: No

Audio #2
ID: 3
Format: AC-3
Format/Info: Audio Coding 3
Mode extension: CM (complete main)
Format settings, Endianness: Big
Codec ID: A_AC3
Duration: 1h 31mn
Bit rate mode: Constant
Bit rate: 448 Kbps
Channel count: 6 channels
Channel positions: Front: L C R, Side: L R, LFE
Sampling rate: 48.0 KHz
Bit depth: 16 bits
Compression mode: Lossy
Stream size: 294 MiB (6%)
Title: Italiano - AC3 5.1 448kbps
Language: Italian
Default: Yes
Forced: No

Text #1
ID: 4
Format: UTF-8
Codec ID: S_TEXT/UTF8
Codec ID/Info: UTF-8 Plain Text
Title: Italiano (Forced)
Language: Italian
Default: Yes
Forced: Yes

Text #2
ID: 5
Format: UTF-8
Codec ID: S_TEXT/UTF8
Codec ID/Info: UTF-8 Plain Text
Title: Italiano
Language: Italian
Default: No
Forced: No

Text #3
ID: 6
Format: UTF-8
Codec ID: S_TEXT/UTF8
Codec ID/Info: UTF-8 Plain Text
Title: English
Language: English
Default: No
Forced: No

Text #4
ID: 7
Format: UTF-8
Codec ID: S_TEXT/UTF8
Codec ID/Info: UTF-8 Plain Text
Title: Français
Language: French
Default: No
Forced: No

Text #5
ID: 8
Format: UTF-8
Codec ID: S_TEXT/UTF8
Codec ID/Info: UTF-8 Plain Text
Title: Deutsch
Language: German
Default: No
Forced: No

Text #6
ID: 9
Format: UTF-8
Codec ID: S_TEXT/UTF8
Codec ID/Info: UTF-8 Plain Text
Title: Español
Language: Spanish
Default: No
Forced: No

Text #7
ID: 10
Format: UTF-8
Codec ID: S_TEXT/UTF8
Codec ID/Info: UTF-8 Plain Text
Title: Português
Language: Portuguese
Default: No
Forced: No

Text #8
ID: 11
Format: UTF-8
Codec ID: S_TEXT/UTF8
Codec ID/Info: UTF-8 Plain Text
Title: Nederlands
Language: Dutch
Default: No
Forced: No

Text #9
ID: 12
Format: UTF-8
Codec ID: S_TEXT/UTF8
Codec ID/Info: UTF-8 Plain Text
Title: Svenska
Language: Finnish
Default: No
Forced: No

Text #10
ID: 13
Format: UTF-8
Codec ID: S_TEXT/UTF8
Codec ID/Info: UTF-8 Plain Text
Title: Suomi
Default: No
Forced: No

Text #11
ID: 14
Format: UTF-8
Codec ID: S_TEXT/UTF8
Codec ID/Info: UTF-8 Plain Text
Title: Dansk
Language: Danish
Default: No
Forced: No

Immagini

Il Treno per il Darjeeling (2007), [BDmux – 720p – H264 – Ita Ac3 Eng Dts – Multisub]
Il Treno per il Darjeeling (2007), [BDmux – 720p – H264 – Ita Ac3 Eng Dts – Multisub]
Il Treno per il Darjeeling (2007), [BDmux – 720p – H264 – Ita Ac3 Eng Dts – Multisub]
Il Treno per il Darjeeling (2007), [BDmux – 720p – H264 – Ita Ac3 Eng Dts – Multisub]

Trackers

http://tracker.publicbt.com:80/
http://tracker.istole.it:80/
http://tracker.tntvillage.scambioetico.org:2710/scrape
http://open.demonii.com:1337/scrape
http://tracker.coppersurfer.tk:6969/scrape
http://tracker.openbittorrent.com/scrape