loading...
loading...






Info

Citizen Toxie: The Toxic Avenger IV


6.4
IMDB: 6.4/10 4,076 votes

Durata: 109 min

Released:

Anno: 26 Aug 2008

Direttore:

Premi: 1 nomination.

Budget: 500000$

Stato: Released

Paese: USA

Cast:




Questa volta il supereroe Toxic torna in azione per combattere il suo alter-ego cattivo proveniente da un’altra dimensione simile a quella di Tromaville (città di Toxic). Sarà aiutato da strani e assurdi supereroi inizialmente ingaggiati per rimpiazzarlo e da una bambina handicappata. Mentre il suo gemello cattivo vivrà nella dimensione del vero Toxic distruggendo la sua buona fama, il nostro eroe sarà proiettato nella deprimente dimensione del suo doppio………….

 

Trailer


Upload on Youtube

Info File

Video
ID : 0
Format : MPEG-4 Visual
Format settings, BVOP : Yes
Format settings, QPel : No
Format settings, GMC : No warppoints
Format settings, Matrix : Default (H.263)
Muxing mode : Packed bitstream
Codec ID : DX50
Codec ID/Hint : DivX 5
Duration : 1h 44mn
Bit rate : 826 Kbps
Width : 512 pixels
Height : 384 pixels
Display aspect ratio : 4:3
Frame rate : 25.000 fps
Color space : YUV
Chroma subsampling : 4:2:0
Bit depth : 8 bits
Scan type : Progressive
Bits/(Pixel*Frame) : 0.168
Stream size : 618 MiB (89%)
Writing library : DivX 5.1.1 (Maupiti) (UTC 2003-11-19)

Audio
ID : 1
Format : MPEG Audio
Format version : Version 1
Format profile : Layer 3
Codec ID : 55
Codec ID/Hint : MP3
Duration : 1h 44mn
Bit rate mode : Constant
Bit rate : 96.0 Kbps
Channel(s) : 2 channels
Sampling rate : 44.1 KHz
Stream size : 71.9 MiB (10%)
Alignment : Split accross interleaves
Interleave, duration : 40 ms (1.00 video frame)
Interleave, preload duration : 500 ms

Immagini

Il Vendicatore Tossico 4 – Citizen Toxie (2000) TROMA, [DivX – Ita Mp3]
Il Vendicatore Tossico 4 – Citizen Toxie (2000) TROMA, [DivX – Ita Mp3]

Trackers

http://tracker.publicbt.com:80/
http://tracker.istole.it:80/
http://tracker.tntvillage.scambioetico.org:2710/scrape
http://open.demonii.com:1337/scrape
http://tracker.coppersurfer.tk:6969/scrape
http://tracker.openbittorrent.com/scrape

Torrent correlati

Torrent Name Dimm. Creato Seed Leech
comment icon
1.33 Gb 2 mesi fa 2 1
comment icon
694.35 Mb 2 mesi fa 3 1
comment icon
791.62 Mb 3 mesi fa 0 0
comment icon
714.77 Mb 2 mesi fa 1 5
comment icon
1.28 Gb 2 mesi fa 3 1