John Mayall – The Turning Point (1969)  (385.72 Mb)

Likes(0)Dislikes(0)
seeders: 5
leechers: 1


loading...
loading...






Info

JOHN MAYALL – THE TURNING POINT

user posted image

Dati Album

Titolo: John Mayall – The Turning Point
Anno: 12/07/1969 Bill Graham’s Fillmore East, NYC
Genere: Blues
Etichetta: Polydor
Formato: EAC V1.0 beta 1 (secure mode) | FLAC+CUE+LOG+COVERS| 385 Mb

Lista canzoni

01. The Laws Must Change
02. Saw Mill Gulch Road
03. I’m Gonna Fight For You J.B.
04. So Hard To Share
05. California
06. Thoughts About Roxanne
07. Room To Move
08. Sleeping By Her Side
09. Don’t Waste My Time
10. Can’t Sleep This Night

Recensione

“The Turning Point” – La svolta.

Nessun titolo è più opportuno ed efficace per descrivere questo album. John Mayall è stato negli anni ’60 con i suoi Bluesbreakers uno dei punti di riferimento dell’ “english blues”: oltre ad essere stati il punto di congiunzione tra il blues revival degli anni ’50 e il blues-rock del decennio successivo, il gruppo è stato un importantissimo trampolino di lancio per artisti come Eric Clapton, Mick Taylor, Larry Taylor, Peter Green.

Dopo il classico “Crusades”, John Mayall abdica simbolicamente dal trono di re del blues per cercare nuove vie. Tenuto nella line-up il fido bassista Steve Thompson e reclutati Johnny Almond al sassoffono e al flauto e il semi-sconosciuto Jon Mark alla chitarra acustica, senza nessun batterista e strumento elettrico, il gruppo registra nell’estate del ’69 al Fillmore East di New York con Eddie Kramer (già tecnico dei Led Zeppelin) dietro la consolle il qui recensito album.

Il disco può essere considerato un unplugged ante-litteram, nel quale c’è un perfetto connubio tra il blues più sofisticato e quello ruspante; i 7 brani sono molto lunghi (7 minuti di media) e strutturati, con grande apporto dei fiati sia in fase di ricamo che solistica. I brani sono tutti di alto livello, ma due in particolare mi hanno colpito: “The Laws Must Change” e “Room to Move” rispettivamente opener e canzone di chiusura dell’album. La prima, dopo la presentazione della band, si sviluppa dapprima come un tipico blues in C con un un efficentissimo lavoro dell’armonica a bocca, ma che nella parte centrale diventa una semi-jam in cui l’armonica duetta col flauto. Tematicamente il brano riguarda il tema delle lotte tra studenti e poliziotti e quello della droga. “Room to Move” è uno dei classici di Mayall ed è famosa per il duello tra lui e Almond a suon di “percussioni vocali” e per la scatenata armonica. Non si possono non citare anche gli altri brani: la ballata “Saw Mill Gulch Road”, “I’m Gonna Fight for You J. B.” (dedicata da Mayall al suo maestro J. B. Lenoir), e il trittico formato da “So Hard to Share”, la lunga ballata “California” e “Thoughts About Roxanne” che presentano più di uno spunto jazz.

Grazie a questo album Mayall riuscì a convincere anche i più dubbiosi circa la nuova via intrapresa con coraggio e che ha rappresentato una vera e propria svolta nel modo di suonare e concepire il blues.

Info File

Exact Audio Copy V0.99 prebeta 3 from 28. July 2007

EAC extraction logfile from 21. November 2007, 23:44

John Mayall / The Turning Point

Used drive : PLEXTOR DVD-ROM PX-116A2 Adapter: 1 ID: 0

Read mode : Secure
Utilize accurate stream : Yes
Defeat audio cache : Yes
Make use of C2 pointers : No

Read offset correction : 102
Overread into Lead-In and Lead-Out : No
Fill up missing offset samples with silence : Yes
Delete leading and trailing silent blocks : No
Null samples used in CRC calculations : No
Used interface : Native Win32 interface for Win NT & 2000
Gap handling : Appended to previous track

Used output format : User Defined Encoder
Selected bitrate : 128 kBit/s
Quality : High
Add ID3 tag : No
Command line compressor : C:\Program Files\FLAC\flac.exe
Additional command line options : -8 -V -T "ARTIST=%a" -T "TITLE=%t" -T "ALBUM=%g" -T "DATE=%y" -T "TRACKNUMBER=%n" -T "GENRE=%m" -T "COMMENT=EAC FLAC -8" %s

TOC of the extracted CD

Track | Start | Length | Start sector | End sector
---------------------------------------------------------
1 | 0:00.00 | 7:21.65 | 0 | 33139
2 | 7:21.65 | 4:39.61 | 33140 | 54125
3 | 12:01.51 | 5:27.64 | 54126 | 78714
4 | 17:29.40 | 7:04.74 | 78715 | 110588
5 | 24:34.39 | 9:30.71 | 110589 | 153409
6 | 34:05.35 | 8:20.55 | 153410 | 190964
7 | 42:26.15 | 5:03.72 | 190965 | 213761
8 | 47:30.12 | 5:10.01 | 213762 | 237012
9 | 52:40.13 | 4:54.57 | 237013 | 259119
10 | 57:34.70 | 6:19.65 | 259120 | 287609

Track 1

Filename D:\tests\John Mayall - The Turning Point (rem 2001)\01 - The Laws Must Change.wav

Pre-gap length 0:00:02.00

Peak level 99.7 %
Track quality 100.0 %
Test CRC 44B5507A
Copy CRC 44B5507A
Accurately ripped (confidence 4) [23EA6183]
Copy OK

Track 2

Filename D:\tests\John Mayall - The Turning Point (rem 2001)\02 - Saw Mill Gulch Road.wav

Peak level 93.1 %
Track quality 100.0 %
Test CRC 5EC60405
Copy CRC 5EC60405
Accurately ripped (confidence 4) [F1D0BD36]
Copy OK

Track 3

Filename D:\tests\John Mayall - The Turning Point (rem 2001)\03 - I'm Gonna Fight For You J.B..wav

Peak level 90.0 %
Track quality 100.0 %
Test CRC E3E062AC
Copy CRC E3E062AC
Accurately ripped (confidence 4) [0DE22B5C]
Copy OK

Track 4

Filename D:\tests\John Mayall - The Turning Point (rem 2001)\04 - So Hard To Share.wav

Peak level 99.9 %
Track quality 100.0 %
Test CRC F432F25D
Copy CRC F432F25D
Accurately ripped (confidence 4) [C7013213]
Copy OK

Track 5

Filename D:\tests\John Mayall - The Turning Point (rem 2001)\05 - California.wav

Pre-gap length 0:00:01.53

Peak level 85.7 %
Track quality 100.0 %
Test CRC 1230453C
Copy CRC 1230453C
Accurately ripped (confidence 4) [8FBE2099]
Copy OK

Track 6

Filename D:\tests\John Mayall - The Turning Point (rem 2001)\06 - Thoughts About Roxanne.wav

Peak level 83.7 %
Track quality 99.9 %
Test CRC 8FC92FDF
Copy CRC 8FC92FDF
Accurately ripped (confidence 4) [A423980A]
Copy OK

Track 7

Filename D:\tests\John Mayall - The Turning Point (rem 2001)\07 - Room To Move.wav

Peak level 94.3 %
Track quality 100.0 %
Test CRC D2D4A17C
Copy CRC D2D4A17C
Accurately ripped (confidence 4) [A75D3207]
Copy OK

Track 8

Filename D:\tests\John Mayall - The Turning Point (rem 2001)\08 - Sleeping By Her Side.wav

Pre-gap length 0:00:02.17

Peak level 85.8 %
Track quality 100.0 %
Test CRC F325D618
Copy CRC F325D618
Accurately ripped (confidence 4) [8A73D28F]
Copy OK

Track 9

Filename D:\tests\John Mayall - The Turning Point (rem 2001)\09 - Don't Waste My Time.wav

Peak level 94.9 %
Track quality 100.0 %
Test CRC C05139F0
Copy CRC C05139F0
Accurately ripped (confidence 4) [495617FD]
Copy OK

Track 10

Filename D:\tests\John Mayall - The Turning Point (rem 2001)\10 - Can't Sleep This Night.wav

Peak level 72.1 %
Track quality 99.9 %
Test CRC 4899A148
Copy CRC 4899A148
Accurately ripped (confidence 4) [87F9F3FB]
Copy OK

All tracks accurately ripped

No errors occurred

End of status report

Trackers

http://tracker.istole.it:80/
http://tracker.tntvillage.scambioetico.org:2710/scrape
http://open.demonii.com:1337/scrape
http://tracker.coppersurfer.tk:6969/scrape
http://tracker.openbittorrent.com/scrape
http://tracker.publicbt.com:80/

Torrent correlati

Torrent Name Dimm. Creato Seed Leech
comment icon
98.37 Mb 1 mese fa 834 38
comment icon
7.87 Gb 2 mesi fa 3 4
comment icon
74.13 Mb 1 mese fa 39 12
comment icon
1.37 Gb 2 mesi fa 0 0
comment icon
496.99 Mb 1 mese fa 1232 102