loading...
loading...






Info

Kit Kittredge: An American Girl


6.6
IMDB: 6.6/10 4,743 votes

Durata: 101 min

Released:

Anno: 02 Jul 2008

Direttore:

Premi: 2 wins & 5 nominations.

Stato: Released

Paese: USA, Canada

Cast:




ID : 0
Format : xvid
Codec ID : xvid
Duration : 1h 31mn
Bit rate : 750 Kbps
Width : 512 pixels
Height : 384 pixels
Display aspect ratio : 4:3
Frame rate : 25.000 fps
Bits/(Pixel*Frame) : 0.153
Stream size : 493 MiB (69%)

Trailer


Upload on Youtube

Info File

ID : 0
Format : xvid
Codec ID : xvid
Duration : 1h 31mn
Bit rate : 750 Kbps
Width : 512 pixels
Height : 384 pixels
Display aspect ratio : 4:3
Frame rate : 25.000 fps
Bits/(Pixel*Frame) : 0.153
Stream size : 493 MiB (69%)

Immagini

Kit Kittredge – An American Girl (2008), [DTTrip – XviD – Ita Mp3]

Trackers

http://tracker.publicbt.com:80/
http://tracker.istole.it:80/
http://tracker.tntvillage.scambioetico.org:2710/scrape
http://open.demonii.com:1337/scrape
http://tracker.coppersurfer.tk:6969/scrape
http://tracker.openbittorrent.com/scrape