loading...
loading...






Info

The Golden Compass


6.1
IMDB: 6.1/10 150,320 votes

Durata: 113 min

Released:

Anno: 07 Dec 2007

Direttore:

Premi: Won 1 Oscar. Another 6 wins & 32 nominations.

Budget: 180000000$

Incassi: 372234864$

Stato: Released

Paese: USA, UK

Cast:




Lyra (Dakota Blue Richards) è una ragazzina orfana che vive con il suo daimon (rappresentazione fisica in forma animale di un individuo), che si fida del suo tutore Lord Asriel (Daniel Craig) ma che viene concupita dalla bella affascinante Mrs. Coulter (Nicole Kidman). Quando alcuni dei suoi amici vengono rapiti dagli ingoiatori Lyra cercherà insieme ai Gyziani di recarsi nella terra degli orsi polari per salvare chi realmente conta per lei.
Il romanzo di Philip Pullman (il primo di una trilogia), è una favola adulta, psicologica, molto differente dagli Harry Potter della Rowling, e per questo motivo più complessa anche da trasferire sullo schermo. L’inizio del film è potteriano, non si parla di maghetti, ma di certo di un istituto dove vengono educati ragazzi che sembrano avere qualcosa di speciale. Poi viene introdotto il concetto di daimon, come scritto in precedenza una rappresentazione dell’anima umana che nei bambini non è stabilizzata e cambia continuamente di forma, che nel libro ha una sua reale complessità, e che nel film invece si dispiega in pochi minuti. Il Daimon è la chiave di tutta la storia, e forse come tale, avrebbe dovuto essere più approfondito.
Passando alla messa in scena del film, dopo il prologo necessario a introdurre situazioni e personaggi, il regista si impegna principalmente nell’impiego degli effetti speciali, tralasciando in parte l’approfondimento dei personaggi, che comunque colorano la storia e le danno vita. Più della protagonista Lyra, rimangono negli occhi l’orso polare Lorek Byrnison (che ricorda tanto Falkor, il cane volante della La storia infinita), la bella e malefica Mrs. Coulter interpretata da una Nicole Kidman dagli occhi glaciali e dalla pelle botulinica, e da Lee Scoresby, una sorta di Capitano Achab dalle sembianze di Buffalo Bill. Infatti la forza e la debolezza de La bussola d’oro è la commistione di elementi derivati da mille altre storie fantastiche, e il bello è forse anche scoprirle.
Il film, anche se freddo a tratti, riesce a coinvolgere per i dettagli e per i mille personaggi messi in scena, che dimostrano che se non sempre è facile inventare qualcosa di nuovo, è la nostra fantasia a farlo. Per noi.

Trailer


Upload on Youtube

Info File

Nome completo : La Bussola D'Oro - The Golden Compass.mkv
Formato : Matroska
Dimensione : 8,20 GiB
Durata : 1h 53min
BitRate totale : 10,4 Mbps
Data di codifica : UTC 2008-06-29 20:24:25
Creato con : mkvmerge v2.2.0 ('Turn It On Again') built on Mar 4 2008 12:58:26
Compressore : libebml v0.7.7 + libmatroska v0.8.1

Video
ID : 1
Formato : AVC
Formato/Informazioni : Advanced Video Codec
Profilo del formato : [email protected]
Impostazioni del formato, CABAC : Si
Impostazioni del formato, ReFram : 4 fotogrammi
Codec ID : V_MPEG4/ISO/AVC
Durata : 1h 53min
Modalità : Variabile
BitRate : 8 554 Kbps
BitRate massimo : 38,0 Mbps
Larghezza : 1 920 pixel
Altezza : 800 pixel
AspectRatio : 2,40:1
FrameRate : 23,976 fps
ColorSpace : YUV
ChromaSubsampling : 4:2:0
BitDepth/String : 8 bits
Tipo di scansione : Progressivo
Bit/(Pixel*Frame) : 0.232
Dimensione della traccia : 6,77 GiB (83%)
Lingua : Inglese

Audio #1
ID : 2
Formato : AC-3
Formato/Informazioni : Audio Coding 3
Format_Settings_ModeExtension : CM (complete main)
Codec ID : A_AC3
Durata : 1h 53min
Modalità : Costante
BitRate : 640 Kbps
Canali : 6 canali
Posizione dei canali : Front: L C R, Side: L R, LFE
SamplingRate : 48,0 KHz
BitDepth/String : 16 bits
Dimensione della traccia : 519 Mb (6%)
Titolo : AC 5.1
Lingua : Inglese

Audio #2
ID : 3
Formato : AC-3
Formato/Informazioni : Audio Coding 3
Format_Settings_ModeExtension : CM (complete main)
Codec ID : A_AC3
Durata : 1h 53min
Modalità : Costante
BitRate : 640 Kbps
Canali : 6 canali
Posizione dei canali : Front: L C R, Side: L R, LFE
SamplingRate : 48,0 KHz
BitDepth/String : 16 bits
Dimensione della traccia : 519 Mb (6%)
Titolo : AC 5.1
Lingua : Francese

Audio #3
ID : 7
Formato : AC-3
Formato/Informazioni : Audio Coding 3
Format_Settings_ModeExtension : CM (complete main)
Codec ID : A_AC3
Durata : 1h 53min
Modalità : Costante
BitRate : 320 Kbps
Canali : 6 canali
Posizione dei canali : Front: L C R, Side: L R, LFE
SamplingRate : 48,0 KHz
BitDepth/String : 16 bits
Dimensione della traccia : 259 Mb (3%)
Titolo : AC 5.1
Lingua : Italiano

Testo #1
ID : 4
Formato : UTF-8
Codec ID : S_TEXT/UTF8
Codec ID/Informazioni : UTF-8 Plain Text
Lingua : Inglese

Testo #2
ID : 5
Formato : UTF-8
Codec ID : S_TEXT/UTF8
Codec ID/Informazioni : UTF-8 Plain Text
Lingua : Francese

Testo #3
ID : 6
Formato : UTF-8
Codec ID : S_TEXT/UTF8
Codec ID/Informazioni : UTF-8 Plain Text
Titolo : FORCED
Lingua : Rumeno

English

General
Complete name : I:\Film\La Bussola D'Oro - The Golden Compass [1080p].mkv
Format : Matroska
File size : 8.20 GiB
Duration : 1h 53mn
Overall bit rate : 10.4 Mbps
Encoded date : UTC 2008-06-29 20:24:25
Writing application : mkvmerge v2.2.0 ('Turn It On Again') built on Mar 4 2008 12:58:26
Writing library : libebml v0.7.7 + libmatroska v0.8.1

Video
ID : 1
Format : AVC
Format/Info : Advanced Video Codec
Format profile : [email protected]
Format settings, CABAC : Yes
Format settings, ReFrames : 4 frames
Codec ID : V_MPEG4/ISO/AVC
Duration : 1h 53mn
Bit rate mode : Variable
Bit rate : 8 554 Kbps
Maximum bit rate : 38.0 Mbps
Width : 1 920 pixels
Height : 800 pixels
Display aspect ratio : 2.40:1
Frame rate : 23.976 fps
Color space : YUV
Chroma subsampling : 4:2:0
Bit depth : 8 bits
Scan type : Progressive
Bits/(Pixel*Frame) : 0.232
Stream size : 6.77 GiB (83%)
Language : English

Audio #1
ID : 2
Format : AC-3
Format/Info : Audio Coding 3
Mode extension : CM (complete main)
Codec ID : A_AC3
Duration : 1h 53mn
Bit rate mode : Constant
Bit rate : 640 Kbps
Channel(s) : 6 channels
Channel positions : Front: L C R, Side: L R, LFE
Sampling rate : 48.0 KHz
Bit depth : 16 bits
Stream size : 519 MiB (6%)
Title : AC 5.1
Language : English

Audio #2
ID : 3
Format : AC-3
Format/Info : Audio Coding 3
Mode extension : CM (complete main)
Codec ID : A_AC3
Duration : 1h 53mn
Bit rate mode : Constant
Bit rate : 640 Kbps
Channel(s) : 6 channels
Channel positions : Front: L C R, Side: L R, LFE
Sampling rate : 48.0 KHz
Bit depth : 16 bits
Stream size : 519 MiB (6%)
Title : AC 5.1
Language : French

Audio #3
ID : 7
Format : AC-3
Format/Info : Audio Coding 3
Mode extension : CM (complete main)
Codec ID : A_AC3
Duration : 1h 53mn
Bit rate mode : Constant
Bit rate : 320 Kbps
Channel(s) : 6 channels
Channel positions : Front: L C R, Side: L R, LFE
Sampling rate : 48.0 KHz
Bit depth : 16 bits
Stream size : 259 MiB (3%)
Title : AC 5.1
Language : Italian

Text #1
ID : 4
Format : UTF-8
Codec ID : S_TEXT/UTF8
Codec ID/Info : UTF-8 Plain Text
Language : English

Text #2
ID : 5
Format : UTF-8
Codec ID : S_TEXT/UTF8
Codec ID/Info : UTF-8 Plain Text
Language : French

Text #3
ID : 6
Format : UTF-8
Codec ID : S_TEXT/UTF8
Codec ID/Info : UTF-8 Plain Text
Title : FORCED
Language : Romanian

Immagini

La bussola d’oro – The golden compass (2007), [BDrip 1080p – H264 – Eng Fra Ita Ac3 – MultiSub]
La bussola d’oro – The golden compass (2007), [BDrip 1080p – H264 – Eng Fra Ita Ac3 – MultiSub]
La bussola d’oro – The golden compass (2007), [BDrip 1080p – H264 – Eng Fra Ita Ac3 – MultiSub]
La bussola d’oro – The golden compass (2007), [BDrip 1080p – H264 – Eng Fra Ita Ac3 – MultiSub]
La bussola d’oro – The golden compass (2007), [BDrip 1080p – H264 – Eng Fra Ita Ac3 – MultiSub]
La bussola d’oro – The golden compass (2007), [BDrip 1080p – H264 – Eng Fra Ita Ac3 – MultiSub]
La bussola d’oro – The golden compass (2007), [BDrip 1080p – H264 – Eng Fra Ita Ac3 – MultiSub]
La bussola d’oro – The golden compass (2007), [BDrip 1080p – H264 – Eng Fra Ita Ac3 – MultiSub]

Trackers

http://tracker.istole.it:80/
http://tracker.publicbt.com:80/
http://tracker.tntvillage.scambioetico.org:2710/scrape
http://open.demonii.com:1337/scrape
http://tracker.openbittorrent.com/scrape
http://tracker.coppersurfer.tk:6969/scrape