loading...
loading...






Info

user posted image
.: Scheda della serie :.
Narratore Pif
Ideatore Pif, Michele Astori, Michele Pellegrini
Regia Luca Ribuoli
Soggetto Pif
Sceneggiatura Pif, Stefano Bises, Michele Astori

Paese Italia
Anno 2016
Formato serie TV
Genere commedia, drammatico
Stagioni 1
Episodi 12
Durata 50 min (episodio)
Lingua originale italiano, siciliano

Cast:
Claudio Gioè: Lorenzo Giammarresi
Anna Foglietta: Pia Giammarresi
Nino Frassica: fra Giacinto
Francesco Scianna: Massimo, fratello di Pia
Angela Curri: Angela Giammarresi
Maurizio Bologna: Vito Ciancimino
Edoardo Buscetta: Salvatore Giammaresi
Valentina D’Agostino: Patrizia
Nicola Rignanese: Boris Giuliano
Gaetano Bruno: Ayala, collega di Pia
Carmelo Galati: Cusumano
Dario Aita: Rosario
Andrea Castellana: Alice
Domenico Centamore: Totò Riina
Enrico Gippetto: Fofò
Francesca Giordano: Santina
Pierangelo Gullo: Sebastiano
Mimmo Mignemi: il capo ufficio di Lorenzo
Pif: voce narrante

.: Info :.
La serie è tratta dall’omonimo film diretto e interpretato da Pif qui in veste di solo narratore oltre che autore del soggetto e della sceneggiatura. Raccontata dalla voce di Pif, la trama narra le vicende di una famiglia comune della Palermo degli anni settanta nella quale si susseguono i fatti che l’hanno caratterizzata nel corso del tempo, alternando verità e finzione televisiva.

Info File

General
Complete name : La.mafia.uccide.solo.d.estate.-.La.serie.S01e01.mp4
Format : MPEG-4
Format profile : Base Media
Codec ID : isom
File size : 1.22 GiB
Duration : 1h 32mn
Overall bit rate mode : Variable
Overall bit rate : 1 898 Kbps
Encoded date : UTC 2016-11-22 00:54:51
Tagged date : UTC 2016-11-22 00:54:51

Video
ID : 1
Format : AVC
Format/Info : Advanced Video Codec
Format profile : [email protected]
Format settings, CABAC : Yes
Format settings, ReFrames : 4 frames
Codec ID : avc1
Codec ID/Info : Advanced Video Coding
Duration : 1h 32mn
Source duration : 1h 32mn
Bit rate mode : Constant
Bit rate : 1 800 Kbps
Maximum bit rate : 5 642 Kbps
Width : 928 pixels
Height : 522 pixels
Display aspect ratio : 16:9
Frame rate mode : Constant
Frame rate : 25.000 fps
Color space : YUV
Chroma subsampling : 4:2:0
Bit depth : 8 bits
Scan type : Progressive
Bits/(Pixel*Frame) : 0.149
Stream size : 1.11 GiB (91%)
Source stream size : 1.16 GiB (95%)
Tagged date : UTC 2016-11-22 00:54:59

Audio
ID : 2
Format : AAC
Format/Info : Advanced Audio Codec
Format profile : LC
Codec ID : 40
Duration : 1h 32mn
Bit rate mode : Variable
Bit rate : 93.6 Kbps
Maximum bit rate : 97.7 Kbps
Channel(s) : 2 channels
Channel positions : Front: L R
Sampling rate : 44.1 KHz
Compression mode : Lossy
Stream size : 61.9 MiB (5%)
Tagged date : UTC 2016-11-22 00:54:59

Trackers

http://IPv6.leechers-paradise.org:6969/scrape
http://tracker.leechers-paradise.org:6969/scrape
http://tracker.tntvillage.scambioetico.org:2710/scrape
http://tracker.internetwarriors.net:1337/scrape
http://tracker.mg64.net:2710/scrape
http://tracker.tiny-vps.com:6969/scrape
http://tracker.coppersurfer.tk:6969/scrape
http://tracker.openbittorrent.com/scrape