La mia Africa (1985), [BDrip]  (4.9 Gb)

Likes(0)Dislikes(0)
seeders: 0
leechers: 1








Info




Budget: 31000000$

Incassi: 128499205$

Stato: Released

Cast:




Intelligente, romantico film che ripercorre la vita di Karen Blixen (una superlativa Meryl Streep). Sposata per convenienza con un nobile rozzo e fatuo, nel 1913 lascia la natia Danimarca alla volta di Nairobi, dove si innamora di un avventuriero inglese (Robert Redford). Ma l’Africa le offrirà alterne fortune e drammi profondi. Pollack ci offre l’immagine di un’Africa patinata e affascinante, pervasa da atmosfere d’epoca perfettamente ricostruite e splendidamente fotografata. Qualche lungaggine qua e là ma soprattutto una splendida prova di recitazione e ben cinque premi Oscar: al film, al regista e a sceneggiatura, fotografia e colonna sonora.

Trailer


Upload on Youtube

Info File

Video
ID : 1
Format : HEVC
Format/Info : High Efficiency Video Coding
Format profile : Main@L4@Main
Codec ID : V_MPEGH/ISO/HEVC
Duration : 2h 40mn
Bit rate : 3 073 Kbps
Width : 1 280 pixels
Height : 694 pixels
Display aspect ratio : 1.85:1
Frame rate mode : Constant
Frame rate : 23.976 (24000/1001) fps
Color space : YUV
Chroma subsampling : 4:2:0
Bit depth : 8 bits
Bits/(Pixel*Frame) : 0.144
Stream size : 3.45 GiB (71%)
Writing library : x265 1.9:[Windows][GCC 5.2.0][64 bit] 8bit
Encoding settings : wpp / ctu=64 / min-cu-size=8 / max-tu-size=32 / tu-intra-depth=3 / tu-inter-depth=3 / me=2 / subme=4 / merange=57 / no-rect / no-amp / max-merge=3 / temporal-mvp / no-early-skip / rdpenalty=0 / no-tskip / no-tskip-fast / strong-intra-smoothing / no-lossless / no-cu-lossless / no-constrained-intra / fast-intra / open-gop / no-temporal-layers / interlace=0 / keyint=250 / min-keyint=23 / scenecut=40 / rc-lookahead=40 / lookahead-slices=0 / bframes=8 / bframe-bias=0 / b-adapt=2 / ref=5 / limit-refs=3 / limit-modes / weightp / weightb / aq-mode=3 / qg-size=32 / aq-strength=2.00 / cbqpoffs=0 / crqpoffs=0 / rd=4 / psy-rd=1.00 / rdoq-level=0 / psy-rdoq=0.00 / signhide / deblock=-1:-1 / sao / no-sao-non-deblock / b-pyramid / no-cutree / no-intra-refresh / rc=crf / crf=22.2 / qcomp=0.60 / qpmin=0 / qpmax=51 / qpstep=4 / vbv-maxrate=12000 / vbv-bufsize=12000 / crf-max=0.0 / ipratio=1.40 / pbratio=1.30
Language : English
Default : Yes
Forced : No
Color range : Limited
Matrix coefficients : BT.709

Audio #1
ID : 2
Format : AC-3
Format/Info : Audio Coding 3
Mode extension : CM (complete main)
Format settings, Endianness : Big
Codec ID : A_AC3
Duration : 2h 40mn
Bit rate mode : Constant
Bit rate : 640 Kbps
Channel(s) : 6 channels
Channel positions : Front: L C R, Side: L R, LFE
Sampling rate : 48.0 KHz
Frame rate : 31.250 fps (1536 spf)
Compression mode : Lossy
Stream size : 737 MiB (15%)
Title : AC3 5.1
Language : Italian
Default : Yes
Forced : No

Immagini

La mia Africa (1985), [BDrip]
La mia Africa (1985), [BDrip]
La mia Africa (1985), [BDrip]
La mia Africa (1985), [BDrip]
La mia Africa (1985), [BDrip]
La mia Africa (1985), [BDrip]
La mia Africa (1985), [BDrip]
La mia Africa (1985), [BDrip]
La mia Africa (1985), [BDrip]
La mia Africa (1985), [BDrip]
La mia Africa (1985), [BDrip]
La mia Africa (1985), [BDrip]
La mia Africa (1985), [BDrip]
La mia Africa (1985), [BDrip]

Trackers

http://tracker.publicbt.com:80/
http://tracker.istole.it:80/
http://tracker.tntvillage.scambioetico.org:2710/scrape
http://open.demonii.com:1337/scrape
http://tracker.coppersurfer.tk:6969/scrape
http://tracker.openbittorrent.com/scrape