La rosa purpurea del Cairo (1985), [BDmux]  (4.15 Gb)

Likes(0)Dislikes(0)
seeders: 4
leechers: 1








Info

The Purple Rose of Cairo


7.7
IMDB: 7.7/10 38,258 votes

Durata: 82 min

Released:

Anno: 19 Apr 1985

Direttore:

Premi: Nominated for 1 Oscar. Another 14 wins & 14 nominations.

Budget: 15000000$

Incassi: 10631333$

Stato: Released

Paese: USA

Cast:




“Affascinante… Tu fai l’amore senza bisogno di dissolvere?”Durante la grande depressione degli anni Trenta, Cecilia, sposata a un ottuso maschilista prepotente, trova consolazione alla sua misera esistenza
lasciandosi affascinare dai film a cui assiste. Un giorno, dallo schermo su cui si proietta “La rosa purpurea del Cairo”, il protagonista “esce” e
si avvia all’esterno con Cecilia. È il caos in sala, ma è una parentesi di sogno per la giovane donna.

Allen in uno dei suoi vertici registici: un divertito e divertente omaggio al cinema, una deliziosa delicatezza di racconto, uno humour finissimo
intriso di sottile malinconia. Un’opera magistrale, in cui l’omaggio al cinema del passato non è disgiunta dall’amarezza della sconfitta di
personaggi piccoli e perdenti.

Trailer


Upload on Youtube

Info File

Video
ID: 1
Format: AVC
Format/Info: Advanced Video Codec
Format profile: [email protected]
Format settings, CABAC: Yes
Format settings, ReFrames: 5 frames
Codec ID: V_MPEG4/ISO/AVC
Duration: 1h 22mn
Bit rate: 6 853 Kbps
Width: 1 280 pixels
Height: 696 pixels
Display aspect ratio: 1.85:1
Frame rate mode: Constant
Frame rate: 23.976 fps
Color space: YUV
Chroma subsampling: 4:2:0
Bit depth: 8 bits
Scan type: Progressive
Bits/(Pixel*Frame): 0.321
Stream size: 3.85 GiB (93%)
Title: La Rosa Purpurea del Cairo (Woody Allen, 1985)
Writing library: x264 core 144 r2525 40bb568
Encoding settings: cabac=1 / ref=5 / deblock=1:-3:-3 / analyse=0x3:0x113 / me=umh / subme=8 / psy=1 /
psy_rd=1.00:0.00 / mixed_ref=1 / me_range=16 / chroma_me=1 / trellis=1 / 8x8dct=1 / cqm=0 / deadzone=21,11 /
fast_pskip=1 / chroma_qp_offset=-2 / threads=24 / lookahead_threads=4 / sliced_threads=0 / nr=0 / decimate=1 /
interlaced=0 / bluray_compat=0 / constrained_intra=0 / bframes=3 / b_pyramid=2 / b_adapt=2 / b_bias=0 /
direct=3 / weightb=1 / open_gop=0 / weightp=2 / keyint=240 / keyint_min=24 / scenecut=40 / intra_refresh=0 /
rc_lookahead=50 / rc=2pass / mbtree=1 / bitrate=6853 / ratetol=1.0 / qcomp=0.60 / qpmin=0 / qpmax=69 /
qpstep=4 / cplxblur=20.0 / qblur=0.5 / ip_ratio=1.40 / aq=1:1.00
Language: English
Default: Yes
Forced: No

Audio #1
ID: 2
Format: AC-3
Format/Info: Audio Coding 3
Mode extension: CM (complete main)
Format settings, Endianness: Big
Codec ID: A_AC3
Duration: 1h 22mn
Bit rate mode: Constant
Bit rate: 192 Kbps
Channel count: 1 channel
Channel positions: Front: C
Sampling rate: 48.0 KHz
Bit depth: 16 bits
Compression mode: Lossy
Stream size: 113 MiB (3%)
Title: Italiano AC3 1.0 192Kbps
Language: Italian
Default: Yes
Forced: No

Immagini

La rosa purpurea del Cairo (1985), [BDmux]
La rosa purpurea del Cairo (1985), [BDmux]
La rosa purpurea del Cairo (1985), [BDmux]
La rosa purpurea del Cairo (1985), [BDmux]
La rosa purpurea del Cairo (1985), [BDmux]
La rosa purpurea del Cairo (1985), [BDmux]

Trackers

http://tracker.istole.it:80/
http://tracker.tntvillage.scambioetico.org:2710/scrape
http://open.demonii.com:1337/scrape
http://tracker.coppersurfer.tk:6969/scrape
http://tracker.openbittorrent.com/scrape
http://tracker.publicbt.com:80/